Статистика раздачи
Размер:  1,45 GB   |    Зарегистрирован:  2 месяца 22 дня   |    Скачан:  0 раз

Полного источника не было: Никогда

 
   
 
 

Симка ®

Пол:
Не указан
Стаж:
5 месяцев 7 дней
Сообщений:
73

Савой- Жанр: криминальная драма
Год выпуска: 1990
Продолжительность: 01:17:45-Режиссёр: Михаил Аветиков-В ролях:
Владимир Стеклов, Сейдулла Молдаханов, Игорь Чулков, Анна Портная, Юлия Рутберг, Ахмед Джераев, Герман Нурханов, Леонид Курнышев, Иван Бирюков, Семен Аранбаев, Светлана Ладыжкина
Описание:
Рядовой инженер московского НИИ ехал в дальнюю командировку. Его отъезду предшествовала бурная ссора с женой. Воспоминания о скандале побудили взвинченного инженера сразу же после отъезда поезда распить с попутчиком бутылку водки. И он заснул безмятежным сном.-Исходник | Сэмпл | Кинопоиск-Качество видео: DVDRip-AVC, спасибо Slava 47 за исходник.
Формат видео: MKV
Видео: x264: (High@L4.1); 716@764x460, Display aspect ratio 1.557:1, 25.000 fps, 2480 Kbps
Аудио: Оригинал: AC-3; 16 bits 48 Khz; 2.0ch 192 Kbps; CBR

MediaInfo

x264 log

avs [info]: 716x460p 16:15 @ 25/1 fps (cfr)
x264 [info]: using SAR=16/15
x264 [info]: using cpu capabilities: MMX2 SSE2Fast SSSE3 SSE4.2
x264 [info]: profile High, level 4.1
x264 [info]: frame I:600 Avg QP:14.89 size: 55542
x264 [info]: frame P:22623 Avg QP:17.43 size: 25182
x264 [info]: frame B:93414 Avg QP:19.53 size: 9027
x264 [info]: consecutive B-frames: 1.2% 2.2% 4.5% 13.1% 11.9% 51.5% 6.3% 2.0% 2.4% 0.8% 1.1% 2.5% 0.4%
x264 [info]: mb I I16..4: 14.5% 65.0% 20.6%
x264 [info]: mb P I16..4: 0.4% 14.8% 2.0% P16..4: 27.4% 34.8% 17.0% 3.2% 0.3% skip: 0.1%
x264 [info]: mb B I16..4: 0.0% 1.8% 0.2% B16..8: 34.3% 24.8% 4.6% direct:14.0% skip:20.3% L0:40.4% L1:35.6% BI:24.0%
x264 [info]: 8x8 transform intra:85.3% inter:47.8%
x264 [info]: direct mvs spatial:96.8% temporal:3.2%
x264 [info]: coded y,uvDC,uvAC intra: 98.7% 75.4% 41.3% inter: 44.7% 21.5% 4.5%
x264 [info]: i16 v,h,dc,p: 5% 6% 38% 51%
x264 [info]: i8 v,h,dc,ddl,ddr,vr,hd,vl,hu: 13% 14% 8% 8% 10% 11% 11% 11% 14%
x264 [info]: i4 v,h,dc,ddl,ddr,vr,hd,vl,hu: 16% 13% 4% 7% 13% 13% 12% 10% 12%
x264 [info]: i8c dc,h,v,p: 25% 33% 22% 19%
x264 [info]: Weighted P-Frames: Y:14.5% UV:2.5%
x264 [info]: ref P L0: 32.0% 10.7% 17.9% 7.1% 7.1% 4.4% 4.8% 2.3% 2.7% 1.8% 2.1% 1.5% 1.8% 1.3% 1.6% 0.9%
x264 [info]: ref B L0: 70.6% 11.2% 4.7% 2.9% 2.0% 1.9% 1.5% 1.0% 0.8% 0.8% 0.7% 0.7% 0.6% 0.4% 0.1%
x264 [info]: ref B L1: 95.7% 4.3%
x264 [info]: kb/s:2480.00
-General
Unique ID : 251002165471292674710741083068951000870 (0xBCD542377538497C8B01C6300E797726)
Complete name : Савой.1990.mkv
Format : Matroska
Format version : Version 2
File size : 1.45 GiB
Duration : 1 h 17 min
Overall bit rate : 2 674 kb/s
Encoded date : UTC 2018-04-28 10:49:07
Writing application : mkvmerge v7.8.0 ('River Man') 32bit built on Mar 27 2015 16:18:02
Writing library : libebml v1.3.1 + libmatroska v1.4.2
Video
ID : 1
Format : AVC
Format/Info : Advanced Video Codec
Format profile : High@L4.1
Format settings, CABAC : Yes
Format settings, ReFrames : 16 frames
Codec ID : V_MPEG4/ISO/AVC
Duration : 1 h 17 min
Bit rate : 2 480 kb/s
Width : 716 pixels
Height : 460 pixels
Display aspect ratio : 5:3
Original display aspect rat : 5:3
Frame rate mode : Constant
Frame rate : 25.000 FPS
Color space : YUV
Chroma subsampling : 4:2:0
Bit depth : 8 bits
Scan type : Progressive
Bits/(Pixel*Frame) : 0.301
Stream size : 1.32 GiB (91%)
Title : Савой.1990
Writing library : x264 core 152 r2851kMod ba24899
Encoding settings : cabac=1 / ref=16 / deblock=1:-3:-1 / analyse=0x3:0x133 / me=umh / subme=11 / psy=1 / fade_compensate=0.00 / psy_rd=1.00:0.15 / mixed_ref=1 / me_range=32 / chroma_me=1 / trellis=2 / 8x8dct=1 / cqm=0 / deadzone=21,11 / fast_pskip=0 / chroma_qp_offset=-3 / threads=12 / lookahead_threads=3 / sliced_threads=0 / nr=0 / decimate=0 / interlaced=0 / bluray_compat=0 / constrained_intra=0 / bframes=12 / b_pyramid=2 / b_adapt=2 / b_bias=0 / direct=3 / weightb=1 / open_gop=0 / weightp=2 / keyint=250 / keyint_min=25 / scenecut=40 / intra_refresh=0 / rc_lookahead=60 / rc=2pass / mbtree=0 / bitrate=2480 / ratetol=1.0 / qcomp=0.55 / qpmin=0 / qpmax=69 / qpstep=4 / cplxblur=20.0 / qblur=0.5 / vbv_maxrate=62500 / vbv_bufsize=78125 / nal_hrd=none / filler=0 / ip_ratio=1.40 / pb_ratio=1.30 / aq=3:0.60
Language : Russian
Default : Yes
Forced : No
Color range : Limited
Color primaries : BT.601 PAL
Transfer characteristics : BT.470 System B, BT.470 System G
Matrix coefficients : BT.601
Audio
ID : 2
Format : AC-3
Format/Info : Audio Coding 3
Mode extension : CM (complete main)
Format settings, Endianness : Big
Codec ID : A_AC3
Duration : 1 h 17 min
Bit rate mode : Constant
Bit rate : 192 kb/s
Channel(s) : 1 channel
Channel positions : Front: C
Sampling rate : 48.0 kHz
Frame rate : 31.250 FPS (1536 spf)
Compression mode : Lossy
Stream size : 107 MiB (7%)
Title : Оригинал: AC-3; 16 bits 48 Khz; 2.0ch 192 Kbps; CBR.
Language : Russian
Default : Yes
Forced : No

Скриншоты

[cybertorrent.ru].t51147.torrent 
Торрент: Зарегистрирован [ 2018-04-30 19:18 ] · 529E7F86C32B92E42ABA5362801FDE0D78528C3D

Скачать .torrent

Скачать

15 KB

Статус: проверено
Скачан: 0 раз
Размер: 1,45 GB
Профиль [ЛС]
Показать сообщения:    

Текущее время: 22-Июл 20:30

Часовой пояс: UTC ± 0



Вы не можете начинать темы
Вы не можете отвечать на сообщения
Вы не можете редактировать свои сообщения
Вы не можете удалять свои сообщения
Вы не можете голосовать в опросах
Вы не можете прикреплять файлы к сообщениям
Вы можете скачивать файлы