Статистика раздачи
Размер:  1,45 GB   |    Зарегистрирован:  6 месяцев 6 дней   |    Скачан:  0 раз

Полного источника не было: Никогда

 
   
 
 

Симка ®

Пол:
Не указан
Стаж:
9 месяцев
Сообщений:
47

Наш человек в Сан-Ремо
Жанр: комедия, музыкальный
Год выпуска: 1990
Продолжительность: 01:39:29

Режиссёр: Александр Ефремов
В ролях: Татьяна Скороходова, Андрей Соколов, Сергей Шкаликов, Евгений Стеблов, Игорь Волчек, Олег Нестеров, Сергей Шустицкий
Описание: Бывший «афганец» Николай отправляется с другом на отдых к морю. Ну а какой отдых без сексапильных девушек?! Но надо же было такому случиться: в ресторане он познакомился с начинающей певицей Татьяной и понял, что это именно та, о которой он мечтал всю жизнь. Теперь Николаю остается совсем пустяк — завоевать сердце «маленькой Тани».
Сэмпл
Качество видео: TVRip
Формат видео: AVI
Видео: 640x496 (1.29:1), 25 fps, XviD build 73 ~1891 kbps avg, 0.24 bit/pixel
Аудио: 48 kHz, MPEG Layer 3, 2 ch, ~192.00 kbps avg

Отличие

http://cybertorrent.ru/viewtopic.php?t=3195005
в моей раздаче присутствует та самая эротическая сцена, которую вырезали при показе в предыдущей раздаче

MediaInfo

General
Complete name : H:\Наш.человек.в.Сан-Ремо.1990.tvrip_[1.45]_[teko].avi
Format : AVI
Format/Info : Audio Video Interleave
File size : 1.45 GiB
Duration : 1h 39mn
Overall bit rate : 2 093 Kbps
Writing application : VirtualDubMod 1.5.10.3 | www.virtualdub-fr.org || (build 2550/release)
Writing library : VirtualDubMod build 2550/release
Video
ID : 0
Format : MPEG-4 Visual
Format profile : Advanced Simple@L5
Format settings, BVOP : 2
Format settings, QPel : No
Format settings, GMC : No warppoints
Format settings, Matrix : Custom
Codec ID : XVID
Codec ID/Hint : XviD
Duration : 1h 39mn
Bit rate : 1 891 Kbps
Width : 640 pixels
Height : 496 pixels
Display aspect ratio : 1.290
Frame rate : 25.000 fps
Color space : YUV
Chroma subsampling : 4:2:0
Bit depth : 8 bits
Scan type : Progressive
Compression mode : Lossy
Bits/(Pixel*Frame) : 0.238
Stream size : 1.31 GiB (90%)
Writing library : XviD 73
Audio
ID : 1
Format : MPEG Audio
Format version : Version 1
Format profile : Layer 3
Codec ID : 55
Codec ID/Hint : MP3
Duration : 1h 39mn
Bit rate mode : Constant
Bit rate : 192 Kbps
Channel(s) : 2 channels
Sampling rate : 48.0 KHz
Compression mode : Lossy
Stream size : 137 MiB (9%)
Alignment : Aligned on interleaves
Interleave, duration : 40 ms (1.00 video frame)
Interleave, preload duratio : 504 ms
Writing library : LAME3.98r
Encoding settings : -m s -V 4 -q 2 -lowpass 18.6 -b 192
Релиз группы:
--
[cybertorrent.ru].t51319.torrent 
Торрент: Зарегистрирован [ 2018-05-08 14:28 ] · BE94466E36935E6455300C34B388537835A819FE

Скачать .torrent

Скачать

15 KB

Статус: проверено
Скачан: 0 раз
Размер: 1,45 GB
Профиль [ЛС]
Показать сообщения:    

Текущее время: 15-Ноя 11:06

Часовой пояс: UTC ± 0



Вы не можете начинать темы
Вы не можете отвечать на сообщения
Вы не можете редактировать свои сообщения
Вы не можете удалять свои сообщения
Вы не можете голосовать в опросах
Вы не можете прикреплять файлы к сообщениям
Вы можете скачивать файлы
Torrents24.ru открытый BitTorrent Torrents24.pl открытый BitTorrent CyberTorrent.ru открытый BitTorrent BtList.ru рейтинг BitTorrent трекеров Яндекс.Метрика