BitTorrent клиенты



Возвращение счастливых звезд / Return of lucky stars / Fu xing chuang jiang hu (Стэнли Фун / Stanley Fung) [1985, Гонконг, комедия, приключения, DVDRip] [Тайваньская версия] AVO (Владимир Сонькин)

Ответить на тему
Статистика раздачи
Размер:  744 MB   |    Зарегистрирован:  6 месяцев 5 дней   |    Скачан:  0 раз

Полного источника не было: Никогда

 
   
 
 
Автор Сообщение

StartSoft ®

Пол: Не указан

Стаж: 1 год

Сообщений: 1587

Создавать темы 17-Авг-2018 15:43

[Цитировать]

Возвращение счастливых звезд / Return of lucky stars / Fu xing chuang jiang hu
Страна: Гонконг
Жанр: комедия, приключения
Год выпуска: 1985
Продолжительность: 01:26:52
Перевод: Авторский (одноголосый закадровый) Владимир Сонькин
Субтитры: нет
Режиссер: Стэнли Фун / Stanley Fung
В ролях: Ричард Н, Эрик Цан, Чуи-Фан Фунг, Киу Вэй Миу, Карина Лау, Хой-Панг Ло, Чинг Вонг, Тат-Ва Чо, Джоан Тонг
Описание: Продолжение знаменитого фильма Мои счастливые звезды ,на этот раз четыре "Счастливые звезды". -- На этот раз четыре «счастливые звезды» утомленные криминальным прошлым, решают заняться легальным бизнесом и открывают салон для новобрачных. Но городским молодоженам недолго пришлось наслаждаться их сервисом, поскольку о существовании «звезд» опять вспомнила полиция. Дело в том, что в руки полицейских попал босс местной мафии. Лишившись «старшего брата» бандиты вышли из-под контроля и на борьбу с ними власти кидают своих проверенных агентов. Расчет полиции прост, если четверка добьется успеха, то вся слава достанется полиции, если провалится — потеря небольшая….
Доп. информация: Выражаю огромную благодарность Нордеру за синхронизацию звуковой дорожки и DVD-исходник. За дорогу благодарим alex2k5sk

Сэмпл: http://multi-up.com/1206426
Качество видео: DVDRip (Исходник DVD-Video)
Формат видео: AVI
Видео: XviD 73, 656x352, (1,85:1), 23,976 fps, 996 Кбит/с, 8 бит
Аудио: Русский (АС3, 2 ch (Front: L R), 48,0 KHz, 192 Kbps

MediaInfo

Общее
Полное имя : D:\Видеофильмы\В и д е о\Мои счастливые звезды - 2 (боевик, комедия 1985 год).avi
Формат : AVI
Формат/Информация : Audio Video Interleave
Размер файла : 744 Мбайт
Продолжительность : 1 ч. 26 м.
Общий поток : 1197 Кбит/сек
Программа кодирования : VirtualDubMod 1.5.10.3 | www.virtualdub-fr.org || (build 2550/release)
Библиотека кодирования : VirtualDubMod build 2550/release
Видео
Идентификатор : 0
Формат : MPEG-4 Visual
Профиль формата : Advanced Simple@L5
Параметр BVOP формата : 2
Параметр QPel формата : Нет
Параметр GMC формата : Без точки перехода
Параметр матрицы формата : Выборочная
Идентификатор кодека : XVID
Идентификатор кодека/Подсказка : XviD
Продолжительность : 1 ч. 26 м.
Битрейт : 996 Кбит/сек
Ширина : 656 пикселей
Высота : 352 пикселя
Соотношение сторон : 1,85:1
Частота кадров : 23,976 (24000/1001) кадра/сек
Цветовое пространство : YUV
Субдискретизация насыщенности : 4:2:0
Битовая глубина : 8 бит
Тип развёртки : Прогрессивная
Метод сжатия : С потерями
Бит/(Пиксели*Кадры) : 0.180
Размер потока : 619 Мбайт (83%)
Библиотека кодирования : XviD 73
Аудио
Идентификатор : 1
Формат : AC-3
Формат/Информация : Audio Coding 3
Расширение режима : CM (complete main)
Параметр Endianness формата : Big
Идентификатор кодека : 2000
Продолжительность : 1 ч. 26 м.
Вид битрейта : Постоянный
Битрейт : 192 Кбит/сек
Каналы : 2 канала
Расположение каналов : Front: L R
Частота : 48,0 КГц
Частота кадров : 31,250 кадров/сек (1536 spf)
Метод сжатия : С потерями
Размер потока : 119 Мбайт (16%)
Выравнивание : Разделение по промежуткам
Продолжительность промежутка : 42 мс. (1,00 видеокадр)
Время предзагрузки промежутка : 500 мс.

Скриншот c названием фильма

Скриншоты

[cybertorrent.ru].t51487.torrent 
Торрент: Зарегистрирован [ 2018-08-17 15:45 ] · 160FB6EEC581CF8A56840CAEDA50ABD41D74A3EF

Скачать .torrent

Скачать

15 KB

Статус: проверено
Скачан: 0 раз
Размер: 744 MB
terms.php
[Профиль] [ЛС]
Показать сообщения:    
Ответить на тему

Текущее время: 23-Фев 15:31

Часовой пояс: UTC + 3



Вы не можете начинать темы
Вы не можете отвечать на сообщения
Вы не можете редактировать свои сообщения
Вы не можете удалять свои сообщения
Вы не можете голосовать в опросах
Вы не можете прикреплять файлы к сообщениям
Вы можете скачивать файлы