Статистика раздачи
Размер:  700 MB   |    Зарегистрирован:  3 месяца 20 дней   |    Скачан:  0 раз

Полного источника не было: Никогда

 
   
 
 

Симка ®

Пол:
Не указан
Стаж:
7 месяцев 4 дня
Сообщений:
73

День Счастья
Жанр: драма, мелодрама
Год выпуска: 1963
Продолжительность: 01:36:02
Режиссёр: Иосиф Хейфиц
В ролях: Тамара Сёмина, Алексей Баталов, Валентин Зубков, Николай Крючков, Лариса Голубкина, Иосиф Конопацкий, Людмила Глазова, С. Евстифеева, Владимир Липпарт, Анна Лисянская, Мария Призван-Соколова, Мария Самойлова, Павел Суханов, Иван Селянин, Владимир Тыкке, Георгий Штиль
Описание: Как правило, жизнь человека - это череда дней, плавно перетекающих из одного в другой. Но иногда случается, что один - самый обычный день кардинально изменяет направление этого размеренного течения.
Врач "скорой помощи" ехал в автобусе и встретил прекрасную незнакомку...

«День счастья» — советский полнометражный чёрно-белый художественный фильм, поставленный на Киностудии «Ленфильм» в 1963 году режиссёром Иосифом Хейфицем по повести Юрия Германа.
Премьера фильма в СССР состоялась 27 июля 1964 года.

Доп. информация: Исходник: http://cybertorrent.ru/viewtopic.php?t=838831
Видео поделено на главы.
Семпл: https://www.sendspace.com/file/mgdhzh
Качество видео: DVDRip-AVC
Формат видео: MKV
Видео: 664x296 (2,25:1), 4:2:0, 25,000 fps, AVC ~981 Kbps avg, ~ 0.200/pixel
Аудио: 48 kHz, HE-AAC, 2/0 (L,R) ch, ~36,9 kbps

MediaInfo

День Счастья (СССР.1963) DVDrip.mkv
Формат : Matroska
Версия формата : Version 4 / Version 2
Размер файла : 700 Мбайт
Продолжительность : 1 ч. 36 м.
Общий поток : 1020 Кбит/сек
Дата кодирования : UTC 2018-05-14 09:13:54
Программа кодирования : mkvmerge v21.0.0 ('Tardigrades Will Inherit The Earth') 64-bit
Библиотека кодирования : libebml v1.3.5 + libmatroska v1.4.8
Видео
Идентификатор : 1
Формат : AVC
Формат/Информация : Advanced Video Codec
Профиль формата : High@L4.1
Параметр CABAC формата : Да
Параметр ReFrames формата : 16 кадров
Идентификатор кодека : V_MPEG4/ISO/AVC
Продолжительность : 1 ч. 36 м.
Битрейт : 981 Кбит/сек
Ширина : 664 пикселя
Высота : 296 пикселей
Соотношение сторон : 2,25:1
Режим частоты кадров : Постоянный
Частота кадров : 25,000 кадров/сек
Цветовое пространство : YUV
Субдискретизация насыщенности : 4:2:0
Битовая глубина : 8 бит
Тип развёртки : Прогрессивная
Бит/(Пиксели*Кадры) : 0.200
Размер потока : 674 Мбайт (96%)
Библиотека кодирования : x264 core 155 r2901 7d0ff22
Настройки программы : cabac=1 / ref=16 / deblock=1:-3:-3 / analyse=0x3:0x133 / me=umh / subme=10 / psy=1 / psy_rd=1.05:0.10 / mixed_ref=1 / me_range=32 / chroma_me=1 / trellis=2 / 8x8dct=1 / cqm=0 / deadzone=21,11 / fast_pskip=0 / chroma_qp_offset=-3 / threads=9 / lookahead_threads=2 / sliced_threads=0 / nr=0 / decimate=0 / interlaced=0 / bluray_compat=0 / constrained_intra=0 / bframes=14 / b_pyramid=2 / b_adapt=2 / b_bias=0 / direct=3 / weightb=1 / open_gop=0 / weightp=2 / keyint=250 / keyint_min=25 / scenecut=40 / intra_refresh=0 / rc_lookahead=60 / rc=2pass / mbtree=1 / bitrate=981 / ratetol=1.0 / qcomp=0.80 / qpmin=0 / qpmax=69 / qpstep=4 / cplxblur=20.0 / qblur=0.5 / vbv_maxrate=62500 / vbv_bufsize=78125 / nal_hrd=none / filler=0 / ip_ratio=1.40 / aq=1:1.00
Default : Да
Forced : Нет
Аудио
Идентификатор : 2
Формат : AAC
Формат/Информация : Advanced Audio Codec
Профиль формата : HE-AAC / LC
Идентификатор кодека : A_AAC
Продолжительность : 1 ч. 36 м.
Битрейт : 36,9 Кбит/сек
Каналы : 2 канала
Расположение каналов : Front: L R
Частота : 48,0 КГц / 24,0 КГц
Частота кадров : 23,438 кадра/сек (1024 spf)
Метод сжатия : С потерями
Задержка видео : 103 мс.
Размер потока : 25,3 Мбайт (4%)
Язык : Russian
Default : Да
Forced : Нет
Меню
00:00:00.080 : en:Chapter 01
00:16:20.240 : en:Chapter 02
00:33:59.120 : en:Chapter 03
00:50:28.400 : en:Chapter 04
01:08:15.440 : en:Chapter 05
01:24:49.520 : en:Chapter 06
[cybertorrent.ru].t51483.torrent 
Торрент: Зарегистрирован [ 2018-05-29 16:41 ] · 787BD0420EA5A656DDF0CA33FD41175CB9F9371F

Скачать .torrent

Скачать

14 KB

Статус: проверено
Скачан: 0 раз
Размер: 700 MB
Профиль [ЛС]
Показать сообщения:    

Текущее время: 19-Сен 16:20

Часовой пояс: UTC ± 0



Вы не можете начинать темы
Вы не можете отвечать на сообщения
Вы не можете редактировать свои сообщения
Вы не можете удалять свои сообщения
Вы не можете голосовать в опросах
Вы не можете прикреплять файлы к сообщениям
Вы можете скачивать файлы
Torrents24.ru открытый BitTorrent Torrents24.pl открытый BitTorrent CyberTorrent.ru открытый BitTorrent BtList.ru рейтинг BitTorrent трекеров Яндекс.Метрика