Статистика раздачи
Размер:  1,33 GB   |    Зарегистрирован:  5 месяцев 22 дня   |    Скачан:  0 раз

Полного источника не было: Никогда

 
   
 
 

Симка ®

Пол:
Не указан
Стаж:
9 месяцев 5 дней
Сообщений:
47

Сильнее всех иных велений
Жанр: драма, биография
Год выпуска: 1987
Продолжительность: 01:35:31
Режиссёр: Борис Бунеев
В ролях: Дмитрий Золотухин, Анна Алексахина, Светлана Рябова, Кирилл Козаков, Георгий Высоцкий, Игорь Ясулович, Андрей Мягков, Наталья Крачковская, Александр Вигдоров, Юрий Дубровин, Анатолий Баранцев, Олег Федоров, Владимир Кулешов, Александр Самойлов, Евдокия Урусова, Инна Выходцева, Вадим Захарченко, Александр Парра, Светлана Орлова, Луиза Мосендз, Вера Ивлева, Евгений Моргунов, Геннадий Никифоров, Лариса Уромова, Евгений Бурмистров, Сергей Ваняшкин, Юрий Забаровский, Ирина Карачева, Алена Баранова, Юрий Богданов
Описание: Историческая картина, посвященная жизни и творчеству великого Юрия Голицына. Именно он является главным героем истории, рассказывающей о непростой, но насыщенной жизни основателя первого народного хора в России. Сюжет разворачивается вокруг еще молодого парня, которого ждет успешная карьера дипломата. Недолго думая, персонаж легко меняет денежную потенциальную работу на то, к чему действительно лежит его душа – творчество.
Пристрастие к музыке и культуре Голицыну прививали с глубокого детства. Отец Юрия был отлично знаком с самим Бетховеном, который даже посвятил семейству несколько известных квартетов. Еще с тех пор молодой человек понял, что настоящее удовольствие ему приносит только музыка. В фильме отображается первое значительное достижение Юрия, случившееся в 1842 году – основание первого народного хора. В его число вошло семьдесят обыкновенных крестьян тамбовского имения. Их пение и музыкальность поражали всех, кто был удостоен чести услышать хотя бы одно выступление.
Дирижировал и занимался подготовкой каждого человека сам Голицын. Он не жалел сил и внимания, именно поэтому его имя узнал весь мир. Гастроли хора проходили не только на знакомой российской земле, но и далеко за рубежом и даже на других континентах. Но получить огромную славу было действительно сложно. Более того, именно она стала причиной многих проблем и несчастий. От чего пришлось отказаться главному герою? И не жалел ли он о том, что выбрал путь творчества, променяв на него достойную жизнь дипломата?
Семпл: http://multi-up.com/1198608
Качество видео: WEB-DL
Формат видео: MKV
Видео: x264, 744x472 (1.58:1), 25 fps, 1800 kbps
Аудио: AAC-LC, 44.1 kHz, 192 kbps, 2.0

MediaInfo

General
Complete name : Сильнее.всех.иных.велений.1987.WEB-DL.mkv
Format : Matroska
Format version : Version 4 / Version 2
File size : 1.33 GiB
Duration : 1 h 35 min
Overall bit rate : 1 991 kb/s
Movie name : Сильнее всех иных велений (1987)
Encoded date : UTC 2018-05-18 05:51:13
Writing application : mkvmerge v22.0.0 ('At The End Of The World') 64-bit
Writing library : libebml v1.3.5 + libmatroska v1.4.8
Video
ID : 1
Format : AVC
Format/Info : Advanced Video Codec
Format profile : Baseline@L3
Format settings : 3 Ref Frames
Format settings, CABAC : No
Format settings, ReFrames : 3 frames
Format settings, GOP : N=1
Codec ID : V_MPEG4/ISO/AVC
Duration : 1 h 35 min
Bit rate : 1 800 kb/s
Width : 744 pixels
Height : 472 pixels
Display aspect ratio : 16:10
Frame rate mode : Constant
Frame rate : 25.000 FPS
Color space : YUV
Chroma subsampling : 4:2:0
Bit depth : 8 bits
Scan type : Progressive
Bits/(Pixel*Frame) : 0.205
Stream size : 1.20 GiB (90%)
Writing library : x264 core 142 r2389 956c8d8
Encoding settings : cabac=0 / ref=3 / deblock=1:0:0 / analyse=0x1:0x131 / me=umh / subme=7 / psy=1 / psy_rd=1.00:0.40 / mixed_ref=1 / me_range=16 / chroma_me=1 / trellis=0 / 8x8dct=0 / cqm=0 / deadzone=21,11 / fast_pskip=0 / chroma_qp_offset=-2 / threads=12 / lookahead_threads=2 / sliced_threads=0 / nr=0 / decimate=1 / interlaced=0 / bluray_compat=0 / constrained_intra=0 / bframes=0 / weightp=0 / keyint=75 / keyint_min=26 / scenecut=40 / intra_refresh=0 / rc_lookahead=40 / rc=2pass / mbtree=0 / bitrate=1800 / ratetol=1.0 / qcomp=0.60 / qpmin=10 / qpmax=51 / qpstep=4 / cplxblur=20.0 / qblur=0.5 / vbv_maxrate=2000 / vbv_bufsize=2000 / nal_hrd=none / filler=0 / ip_ratio=1.40 / aq=1:1.00
Language : Russian
Default : Yes
Forced : No
Color range : Limited
Color primaries : BT.601 PAL
Transfer characteristics : BT.709
Matrix coefficients : BT.601
Audio
ID : 2
Format : AAC
Format/Info : Advanced Audio Codec
Format profile : LC
Codec ID : A_AAC-2
Duration : 1 h 35 min
Bit rate : 192 kb/s
Channel(s) : 2 channels
Channel positions : Front: L R
Sampling rate : 44.1 kHz
Frame rate : 43.066 FPS (1024 SPF)
Compression mode : Lossy
Stream size : 131 MiB (10%)
Language : Russian
Default : Yes
Forced : No

Скриншоты

[cybertorrent.ru].t51523.torrent 
Торрент: Зарегистрирован [ 2018-05-29 16:41 ] · AA1D3DA810984857D5C6FF5061665AA81B797FB3

Скачать .torrent

Скачать

14 KB

Статус: проверено
Скачан: 0 раз
Размер: 1,33 GB
Профиль [ЛС]
Показать сообщения:    

Текущее время: 20-Ноя 20:22

Часовой пояс: UTC ± 0



Вы не можете начинать темы
Вы не можете отвечать на сообщения
Вы не можете редактировать свои сообщения
Вы не можете удалять свои сообщения
Вы не можете голосовать в опросах
Вы не можете прикреплять файлы к сообщениям
Вы можете скачивать файлы
Torrents24.ru открытый BitTorrent Torrents24.pl открытый BitTorrent CyberTorrent.ru открытый BitTorrent BtList.ru рейтинг BitTorrent трекеров Яндекс.Метрика