Статистика раздачи
Размер:  1,46 GB   |    Зарегистрирован:  5 месяцев 17 дней   |    Скачан:  0 раз

Полного источника не было: Никогда

 
   
 
 

Симка ®

Пол:
Не указан
Стаж:
9 месяцев 5 дней
Сообщений:
47

Ташкент - город хлебный
Жанр: Драма
Год выпуска: 1967
Продолжительность: 02:33:22
Режиссёр: Шухрат Аббасов
В ролях: Володя Воробей, Володя Куденков, Валентина Талызина, Бахтияр Набиев, Наталья Аринбасарова, Николай Тимофеев, Александр Суснин, Раиса Куркина, Виктор Колпаков, Евгений Гуров, Александра Денисова, Станислав Чекан, Виктор Косых
Описание: Советская Россия, Поволжье, 1921 год. Не успели отгреметь битвы гражданской войны, как новая беда настигла молодую Советскую республику. Засуха иссушила землю Поволжья. Неурожай зерновых привёл к массовому голоду. Советская власть была не в состоянии помочь бедствующим крестьянам. Чтобы спасти мать и младших братьев от голода, крестьянский мальчик Миша Додонов вместе с другом Серёжей отправляется в Ташкент на заработки...
Доп. информация: Полная версия длиннее обычной на 56 минут
Семпл: http://multi-up.com/1074399
Формат видео: AVI
Качество видео: VHSRip
Видео: XviD, 640х280, 25fps, 1165kbps
Аудио: MPEG Layer 3, 2ch, 48000Hz, 192kbps

MediaInfo

Общее
Полное имя : Tashkent.Gorod.Hlebnyi.1967.O.VHSRip.1400.PV.avi
Формат : AVI
Формат/Информация : Audio Video Interleave
Размер файла : 1,46 Гбайт
Продолжительность : 2 ч. 33 м.
Общий поток : 1367 Кбит/сек
Программа кодирования : VirtualDubMod 1.5.10.3 | www.virtualdub-fr.org || (build 2550/release)
Библиотека кодирования : VirtualDub build 35491/release
Видео
Идентификатор : 0
Формат : MPEG-4 Visual
Профиль формата : Advanced Simple@L5
Параметр BVOP формата : 1
Параметр QPel формата : Нет
Параметр GMC формата : Без точки перехода
Параметр матрицы формата : Выборочная
Идентификатор кодека : XVID
Идентификатор кодека/Подсказка : XviD
Продолжительность : 2 ч. 33 м.
Битрейт : 1165 Кбит/сек
Ширина : 640 пикселей
Высота : 280 пикселей
Соотношение сторон : 2,25:1
Частота кадров : 25,000 кадров/сек
Цветовое пространство : YUV
Субдискретизация насыщенности : 4:2:0
Битовая глубина : 8 бит
Тип развёртки : Прогрессивная
Метод сжатия : С потерями
Бит/(Пиксели*Кадры) : 0.260
Размер потока : 1,25 Гбайт (85%)
Библиотека кодирования : XviD 73
Аудио
Идентификатор : 1
Формат : MPEG Audio
Версия формата : Version 1
Профиль формата : Layer 3
Идентификатор кодека : 55
Идентификатор кодека/Подсказка : MP3
Продолжительность : 2 ч. 33 м.
Вид битрейта : Постоянный
Битрейт : 192 Кбит/сек
Каналы : 2 канала
Частота : 48,0 КГц
Метод сжатия : С потерями
Размер потока : 211 Мбайт (14%)
Выравнивание : Разделение по промежуткам
Продолжительность промежутка : 40 мс. (1,00 видеокадр)
Время предзагрузки промежутка : 500 мс.
Библиотека кодирования : LAME3.99r
Настройки программы : -m s -V 4 -q 2 -lowpass 18.6 -b 192

Скриншоты


[cybertorrent.ru].t51729.torrent 
Торрент: Зарегистрирован [ 2018-06-03 14:32 ] · 86953A5615F9F6A8804198ACB588CF01A4AB8621

Скачать .torrent

Скачать

15 KB

Статус: проверено
Скачан: 0 раз
Размер: 1,46 GB
Профиль [ЛС]
Показать сообщения:    

Текущее время: 20-Ноя 20:13

Часовой пояс: UTC ± 0



Вы не можете начинать темы
Вы не можете отвечать на сообщения
Вы не можете редактировать свои сообщения
Вы не можете удалять свои сообщения
Вы не можете голосовать в опросах
Вы не можете прикреплять файлы к сообщениям
Вы можете скачивать файлы
Torrents24.ru открытый BitTorrent Torrents24.pl открытый BitTorrent CyberTorrent.ru открытый BitTorrent BtList.ru рейтинг BitTorrent трекеров Яндекс.Метрика