BitTorrent клиенты



Сообщество / The Row (Мэтти Бекерман / Matty Beckerman) [2018, Канада, США, триллер, WEB-DLRip] MVO (HDRezka Studio)

Ответить на тему
Статистика раздачи
Размер:  1,46 GB   |    Зарегистрирован:  6 месяцев 4 дня   |    Скачан:  0 раз

Полного источника не было: Никогда

 
   
 
 
Автор Сообщение

GEEP ®

Пол: Не указан

Стаж: 1 год

Сообщений: 866

Создавать темы 19-Авг-2018 15:42

[Цитировать]

Сообщество / The Row
Страна: Канада, США
Жанр: триллер
Год выпуска: 2018
Продолжительность: 01:25:40-Перевод: Любительский (многоголосый закадровый) | HDRezka Studio
Субтитры: нет
Оригинальная аудиодорожка: нет-Режиссер: Мэтти Бекерман / Matty Beckerman-В ролях: Лорин Кент, Колин Эглсфилд, Дилан Спрейберри, Миа Фрэмптон, Сара МакДэниел, Рэнди Кутюр, Лекси Аткинс, Малия Ричардсон, Ши Бакнер, Река Рене-Описание: Юная девушка Райли – дочь известного детектива, который чрезмерно опекает ее. Поступление в институт становится той отдушиной в жизни девушки, которой ей так давно не хватало. Теперь она чувствует себя взрослой и свободной. Новые ощущения, романтические моменты, любовные развлечения просто дурманят разум Райли. Основная цель новоиспеченной студентки – вступление в самое крутое сестринское сообщество, где правят особые правила и традиции. Оказаться среди девчонок закрытого клуба очень сложно, они устраивают первокурсницам жесткий отбор, где побеждает сильнейший. Начало студенческой жизни для Райли идет лучшим образом, до тех пор, пока череду развлечений не накрывает волной жестоких преступлений. В университете объявился чудовищный убийца, атакам которого подверглось множество красивых девушек. Маньяк безжалостно потрошит своих жертв, после чего делает из них настоящих кукол. Яркий наряд и вызывающий макияж нагоняет страх даже на сотрудников полиции, которые ведут это расследование. Отец Райли очень переживает за нее и просит держаться подальше от вечеринок, незнакомых парней и сестринского сообщества. Но с каждым днем психопат подбирается все ближе и ближе.-Качество видео: WEB-DLRip
Формат видео: AVI
Видео: 720x384 (1.88:1), 23.976 fps, XviD build 73 ~2230 kbps avg, 0.34 bit/pixel
Аудио: 48 kHz, AC3 Dolby Digital, 2/0 (L,R) ch, ~192 kbps-[box]Сэмпл[/box]-

MediaInfo

Код:Формат : AVI
Формат/Информация : Audio Video Interleave
Размер файла : 1,46 Гбайт
Продолжительность : 1 ч. 25 м.
Общий поток : 2432 Кбит/сек
Программа кодирования : VirtualDubMod 1.5.10.2 (build 2542/release)
Библиотека кодирования : VirtualDubMod build 2542/release
Видео
Идентификатор : 0
Формат : MPEG-4 Visual
Профиль формата : Advanced Simple@L5
Настройки формата : BVOP1 / Custom Matrix
Параметр BVOP формата : 1
Параметр QPel формата : Нет
Параметр GMC формата : Без точки перехода
Параметр матрицы формата : Выборочная
Идентификатор кодека : XVID
Идентификатор кодека/Подсказка : XviD
Продолжительность : 1 ч. 25 м.
Битрейт : 2230 Кбит/сек
Ширина : 720 пикселей
Высота : 384 пикселя
Соотношение сторон : 1,85:1
Частота кадров : 23,976 (24000/1001) кадра/сек
Цветовое пространство : YUV
Субдискретизация насыщенности : 4:2:0
Битовая глубина : 8 бит
Тип развёртки : Прогрессивная
Метод сжатия : С потерями
Бит/(Пиксели*Кадры) : 0.336
Размер потока : 1,33 Гбайт (92%)
Библиотека кодирования : XviD 73
Аудио
Идентификатор : 1
Формат : AC-3
Формат/Информация : Audio Coding 3
Идентификатор кодека : 2000
Продолжительность : 1 ч. 25 м.
Вид битрейта : Постоянный
Битрейт : 192 Кбит/сек
Каналы : 2 канала
Расположение каналов : Front: L R
Частота : 48,0 КГц
Частота кадров : 31,250 кадров/сек (1536 SPF)
Битовая глубина : 16 бит
Метод сжатия : С потерями
Размер потока : 118 Мбайт (8%)
Выравнивание : Разделение по промежуткам
Продолжительность промежутка : 42 мс. (1,00 видеокадр)
Время предзагрузки промежутка : 500 мс.
ServiceKind/String : Complete Main

Скриншоты


При появлении проф. озвучки, перезалью.
[cybertorrent.ru].t51771.torrent 
Торрент: Зарегистрирован [ 2018-08-19 15:45 ] · 34B44ADBCCCD83AAC9A18ACBD58E89D9885FE667

Скачать .torrent

Скачать

15 KB

Статус: проверено
Скачан: 0 раз
Размер: 1,46 GB
terms.php
[Профиль] [ЛС]
Показать сообщения:    
Ответить на тему

Текущее время: 23-Фев 16:37

Часовой пояс: UTC + 3



Вы не можете начинать темы
Вы не можете отвечать на сообщения
Вы не можете редактировать свои сообщения
Вы не можете удалять свои сообщения
Вы не можете голосовать в опросах
Вы не можете прикреплять файлы к сообщениям
Вы можете скачивать файлы