Статистика раздачи
Размер:  190 MB   |    Зарегистрирован:  4 месяца 12 дней   |    Скачан:  0 раз

Полного источника не было: Никогда

 
   
 
 

Keeper ®

Пол:
Не указан
Стаж:
9 месяцев 5 дней
Сообщений:
507

Various Artists - Пионерские песни 2
Жанр: Vocal
Носитель: CD
Страна-производитель диска: Россия
Год издания: 2002
Издатель (лейбл): Bomba Music, Мелодия
Аудиокодек: FLAC (*.flac)
Тип рипа: image+.cue
Битрейт аудио: lossless
Продолжительность: 51:07
Источник (релизер): Собственный диск
Наличие сканов в содержимом раздачи: нет
Треклист:
01. Орлята Учатся Летать (02:33)
02. Ленинская Правда (01:41)
03. Марш Пионерских Дружин (02:14)
04. Песня О Пионерах - Героях (03:08)
05. Школьная Полька (02:15)
06. Песня О Пионерской Дружбе (02:36)
07. Песня О Первом Пионерском Отряде (03:13)
08. Замечательный Вожатый (01:54)
09. Гайдар Шагает Впереди (02:40)
10. Здравствуй, Морозов (02:19)
11. Песня О Пионерской Присяге (02:19)
12. Веселое Звено (02:46)
13. Про Петю, Пионерские Частушки (02:42)
14. Мы Проходим У Кремля (03:02)
15. Песня О Зое (03:24)
16. Пионерские Мечты (03:06)
17. Мы Долго Будем Помнить (02:54)
18. Песня Юных Мечтателей (02:08)
19. Веселые Километры (02:10)
20. Песня О Морской Мечте (01:52)

Лог создания рипа

Exact Audio Copy V1.0 beta 3 from 29. August 2011
Отчёт EAC об извлечении, выполненном 29. ноября 2014, 19:20
VA / Пионерские песни 2
Дисковод: SlimtypeDVD A DS8A5SH Adapter: 0 ID: 1
Режим чтения : Достоверность
Использование точного потока : Да
Отключение кэша аудио : Да
Использование указателей C2 : Нет
Коррекция смещения при чтении : 6
Способность читать области Lead-in и Lead-out : Нет
Заполнение пропущенных сэмплов тишиной : Да
Удаление блоков с тишиной в начале и конце : Нет
При вычислениях CRC использовались нулевые сэмплы : Да
Интерфейс : Встроенный Win32-интерфейс для Win NT/2000
Выходной формат : Пользовательский кодировщик
Выбранный битрейт : 128 kBit/s
Качество : Высокий
Добавление ID3-тега : Нет
Утилита сжатия : C:\Program Files (x86)\FLAC\FLAC frontend.exe
Дополнительные параметры : -V -8 -T "Date=%year%" -T "Genre=%genre%" %source%
TOC извлечённого CD
Трек | Старт | Длительность | Начальный сектор | Конечный сектор
---------------------------------------------------------------------
1 | 0:00.00 | 2:33.62 | 0 | 11536
2 | 2:33.62 | 1:41.49 | 11537 | 19160
3 | 4:15.36 | 2:14.59 | 19161 | 29269
4 | 6:30.20 | 3:07.72 | 29270 | 43366
5 | 9:38.17 | 2:15.64 | 43367 | 53555
6 | 11:54.06 | 2:36.51 | 53556 | 65306
7 | 14:30.57 | 3:13.42 | 65307 | 79823
8 | 17:44.24 | 1:54.56 | 79824 | 88429
9 | 19:39.05 | 2:40.66 | 88430 | 100495
10 | 22:19.71 | 2:19.49 | 100496 | 110969
11 | 24:39.45 | 2:19.44 | 110970 | 121438
12 | 26:59.14 | 2:46.23 | 121439 | 133911
13 | 29:45.37 | 2:42.40 | 133912 | 146101
14 | 32:28.02 | 3:02.34 | 146102 | 159785
15 | 35:30.36 | 3:24.35 | 159786 | 175120
16 | 38:54.71 | 3:06.08 | 175121 | 189078
17 | 42:01.04 | 2:54.01 | 189079 | 202129
18 | 44:55.05 | 2:08.30 | 202130 | 211759
19 | 47:03.35 | 2:10.29 | 211760 | 221538
20 | 49:13.64 | 1:52.38 | 221539 | 229976
Характеристики диапазона извлечения и сообщения об ошибках
Выбранный диапазон
Имя файла D:\Пионерские песни 2 (2002)\VA - Пионерские песни 2.wav
Пиковый уровень 94.0 %
Скорость извлечения 4.2 X
Качество диапазона 99.9 %
CRC теста 51B12827
CRC копии 51B12827
Копирование... OK
Ошибок не произошло
AccurateRip: сводка
Трек 1 отсутствует в базе данных
Трек 2 отсутствует в базе данных
Трек 3 отсутствует в базе данных
Трек 4 отсутствует в базе данных
Трек 5 отсутствует в базе данных
Трек 6 отсутствует в базе данных
Трек 7 отсутствует в базе данных
Трек 8 отсутствует в базе данных
Трек 9 отсутствует в базе данных
Трек 10 отсутствует в базе данных
Трек 11 отсутствует в базе данных
Трек 12 отсутствует в базе данных
Трек 13 отсутствует в базе данных
Трек 14 отсутствует в базе данных
Трек 15 отсутствует в базе данных
Трек 16 отсутствует в базе данных
Трек 17 отсутствует в базе данных
Трек 18 отсутствует в базе данных
Трек 19 отсутствует в базе данных
Трек 20 отсутствует в базе данных
Ни одного трека нет в базе AccurateRip
Конец отчёта
==== Контрольная сумма отчёта BD107CC3D3BFD5D7E3DCE99982C91630C66E4ACDF330BF45389A03DFDD34D8A7 ====

Содержание индексной карты (.CUE)

REM GENRE Folklore
REM DATE 2002
REM DISCID 150BFA14
REM COMMENT "ExactAudioCopy v1.0b3"
PERFORMER "VA"
TITLE "Пионерские песни 2"
FILE "VA - Пионерские песни 2.flac" WAVE
TRACK 01 AUDIO
TITLE "Орлята учатся летать"
PERFORMER "VA"
INDEX 01 00:00:00
TRACK 02 AUDIO
TITLE "Ленинская правда"
PERFORMER "VA"
INDEX 01 02:33:62
TRACK 03 AUDIO
TITLE "Марш пионерских дружин"
PERFORMER "VA"
INDEX 01 04:15:36
TRACK 04 AUDIO
TITLE "Песня о пионерах - героях"
PERFORMER "VA"
INDEX 01 06:30:20
TRACK 05 AUDIO
TITLE "Школьная полька"
PERFORMER "VA"
INDEX 01 09:38:17
TRACK 06 AUDIO
TITLE "Песня о пионерской дружбе"
PERFORMER "VA"
INDEX 01 11:54:06
TRACK 07 AUDIO
TITLE "Песня о первом пионерском отряде"
PERFORMER "VA"
INDEX 01 14:30:57
TRACK 08 AUDIO
TITLE "Замечательный вожатый"
PERFORMER "VA"
INDEX 01 17:44:24
TRACK 09 AUDIO
TITLE "Гайдар шагает впереди"
PERFORMER "VA"
INDEX 01 19:39:05
TRACK 10 AUDIO
TITLE "Здравствуй, Морозов "
PERFORMER "VA"
INDEX 01 22:19:71
TRACK 11 AUDIO
TITLE "Песня о пионерской присяге"
PERFORMER "VA"
INDEX 01 24:39:45
TRACK 12 AUDIO
TITLE "Веселое звено"
PERFORMER "VA"
INDEX 01 26:59:14
TRACK 13 AUDIO
TITLE "Про Петю, пионерские частушки"
PERFORMER "VA"
INDEX 01 29:45:37
TRACK 14 AUDIO
TITLE "Мы проходим у Кремля"
PERFORMER "VA"
INDEX 01 32:28:02
TRACK 15 AUDIO
TITLE "Песня о Зое"
PERFORMER "VA"
INDEX 01 35:30:36
TRACK 16 AUDIO
TITLE "Пионерские мечты"
PERFORMER "VA"
INDEX 01 38:54:71
TRACK 17 AUDIO
TITLE "Мы долго будем помнить"
PERFORMER "VA"
INDEX 01 42:01:04
TRACK 18 AUDIO
TITLE "Песня юных мечтателей"
PERFORMER "VA"
INDEX 01 44:55:05
TRACK 19 AUDIO
TITLE "Веселые километры"
PERFORMER "VA"
INDEX 01 47:03:35
TRACK 20 AUDIO
TITLE "Песня о морской мечте"
PERFORMER "VA"
INDEX 01 49:13:64
[cybertorrent.ru].t55987.torrent 
Торрент: Зарегистрирован [ 2018-07-08 17:53 ] · 3CB4E51A0998221708E0E803105EA9FCC4A9A1C9

Скачать .torrent

Скачать

16 KB

Статус: проверено
Скачан: 0 раз
Размер: 190 MB
Профиль [ЛС]
Показать сообщения:    

Текущее время: 20-Ноя 20:24

Часовой пояс: UTC ± 0



Вы не можете начинать темы
Вы не можете отвечать на сообщения
Вы не можете редактировать свои сообщения
Вы не можете удалять свои сообщения
Вы не можете голосовать в опросах
Вы не можете прикреплять файлы к сообщениям
Вы можете скачивать файлы
Torrents24.ru открытый BitTorrent Torrents24.pl открытый BitTorrent CyberTorrent.ru открытый BitTorrent BtList.ru рейтинг BitTorrent трекеров Яндекс.Метрика