BitTorrent клиенты



Мстители: Война бесконечности / Avengers: Infinity War (Энтони Руссо / Anthony Russo, Джо Руссо / Joe Russo) [2018, США, фантастика, фэнтези, боевик, WEBRip 1080p] [Локализованный видеоряд] [Open Matte] Dub + Original (Eng) + Sub (Rus, Eng)

Ответить на тему
Статистика раздачи
Размер:  7,75 GB   |    Зарегистрирован:  4 месяца 28 дней   |    Скачан:  0 раз

Полного источника не было: Никогда

 
   
 
 
Автор Сообщение

RussianGirl ®

Пол: Не указан

Стаж: 1 год

Сообщений: 1309

Создавать темы 25-Сен-2018 15:34

[Цитировать]

Мстители: Война бесконечности / Avengers: Infinity War«An entire universe. Once and for all»
-Год выхода: 2018
Выпущено: США / Marvel Studios
Жанр: фантастика, фэнтези, боевик, приключения
Продолжительность: 02:29:35
Перевод: Профессиональный (полное дублирование) [Blu-Ray]
Субтитры: Русские, английские
Оригинальная аудиодорожка: Английская-Режиссер: Энтони Руссо / Anthony Russo, Джо Руссо / Joe Russo-В ролях: Роберт Дауни мл., Крис Хемсворт, Марк Руффало, Крис Эванс, Скарлетт Йоханссон, Дон Чидл, Бенедикт Камбербэтч, Том Холланд (II), Чэдвик Боузмэн, Зои Салдана-О фильме: Пока Мстители и их союзники продолжают защищать мир от различных опасностей, с которыми не смог бы справиться один супергерой, новая угроза возникает из космоса: Танос. Межгалактический тиран преследует цель собрать все шесть Камней Бесконечности — артефакты невероятной силы, с помощью которых можно менять реальность по своему желанию. Всё, с чем Мстители сталкивались ранее, вело к этому моменту — судьба Земли никогда ещё не была столь неопределённой.- -Доп. информация:
- исходная вебка выкачана с онлайн кинотеатра ivi, обработке не подвергалась. (спасибо maksnew)
- Open Matte версия имеет иное наполнение кадра нежли BD, подробное сравнение ниже под спойлером.
- присутствуют вшитые русские форсированные субтитры на надписи и иноземную речь, видеоряд частично локализован.
- выход данного фильма на BD IMAX не планируется.-Тип релиза: WEBRip 1080p [ivi]
Контейнер: MKV
Видео: H.264, 1920x1080, 23 976 fps, 8bit, 5 120 kb/s
Аудио #1: Russian: AC3, 640 kb/s, 6 ch, 48 КГц |Дубляж, BD|
Аудио #2: English: DTS, 1536 kb/s, 6 ch, 48 КГц, 24 бит |Original, BD|
Аудио #3: English: AC3, 192 kb/s, 2 ch, 48 КГц |Commentary, BD|
Субтитры: Русские (Forced, hardsub), русские (full+SDH, в составе контейнера), английские (full+SDH, в составе контейнера) (.srt)
Разбивка по главам: есть

Скриншоты


Скриншоты сравнения изданий




Разница версий на примере одной сцены

MediaInfo

Complete name : Avengers.Infinity.War.2018.Open.Matte.WEB-DL.1080p.mkv
Format : Matroska
Format version : Version 4 / Version 2
File size : 7.75 GiB
Duration : 2 h 29 min
Overall bit rate : 7 420 kb/s
Movie name : Avengers.Infinity.War.2018.Open.Matte.WEB-DL.1080p-SOFCJ
Encoded date : UTC 2018-09-18 14:31:16
Writing application : mkvmerge v8.3.0 ('Over the Horizon') 64bit
Writing library : libebml v1.3.1 + libmatroska v1.4.2
Cover : Yes
Attachments : cover.jpg
Video
ID : 1
Format : AVC
Format/Info : Advanced Video Codec
Format profile : High@L4
Format settings : CABAC / 4 Ref Frames
Format settings, CABAC : Yes
Format settings, ReFrames : 4 frames
Codec ID : V_MPEG4/ISO/AVC
Duration : 2 h 29 min
Bit rate : 5 120 kb/s
Width : 1 920 pixels
Height : 1 080 pixels
Display aspect ratio : 16:9
Frame rate mode : Constant
Frame rate : 23.976 (24000/1001) FPS
Color space : YUV
Chroma subsampling : 4:2:0
Bit depth : 8 bits
Scan type : Progressive
Bits/(Pixel*Frame) : 0.103
Stream size : 5.31 GiB (68%)
Title : [WEB-DL ivi]
Writing library : x264 core 142
Encoding settings : cabac=1 / ref=3 / deblock=1:0:0 / analyse=0x3:0x113 / me=hex / subme=7 / psy=1 / psy_rd=1.00:0.00 / mixed_ref=1 / me_range=16 / chroma_me=1 / trellis=1 / 8x8dct=1 / cqm=0 / deadzone=21,11 / fast_pskip=1 / chroma_qp_offset=-2 / threads=84 / lookahead_threads=8 / sliced_threads=0 / nr=0 / decimate=1 / interlaced=0 / bluray_compat=0 / constrained_intra=0 / bframes=6 / b_pyramid=2 / b_adapt=1 / b_bias=0 / direct=1 / weightb=1 / open_gop=0 / weightp=2 / keyint=50 / keyint_min=26 / scenecut=0 / intra_refresh=0 / rc_lookahead=40 / rc=2pass / mbtree=1 / bitrate=5120 / ratetol=1.0 / qcomp=0.60 / qpmin=0 / qpmax=69 / qpstep=4 / cplxblur=20.0 / qblur=0.5 / vbv_maxrate=7680 / vbv_bufsize=20480 / nal_hrd=none / filler=0 / ip_ratio=1.40 / aq=1:1.00
Language : Russian
Default : Yes
Forced : No
Audio #1
ID : 2
Format : AC-3
Format/Info : Audio Coding 3
Commercial name : Dolby Digital
Codec ID : A_AC3
Duration : 2 h 29 min
Bit rate mode : Constant
Bit rate : 640 kb/s
Channel(s) : 6 channels
Channel positions : Front: L C R, Side: L R, LFE
Sampling rate : 48.0 kHz
Frame rate : 31.250 FPS (1536 SPF)
Bit depth : 16 bits
Compression mode : Lossy
Stream size : 684 MiB (9%)
Title : Dub [BD]
Language : Russian
Service kind : Complete Main
Default : Yes
Forced : No
Audio #2
ID : 3
Format : DTS
Format/Info : Digital Theater Systems
Codec ID : A_DTS
Duration : 2 h 29 min
Bit rate mode : Constant
Bit rate : 1 509 kb/s
Channel(s) : 6 channels
Channel positions : Front: L C R, Side: L R, LFE
Sampling rate : 48.0 kHz
Frame rate : 93.750 FPS (512 SPF)
Bit depth : 24 bits
Compression mode : Lossy
Stream size : 1.57 GiB (20%)
Title : Original [BD]
Language : English
Default : No
Forced : No
Audio #3
ID : 4
Format : AC-3
Format/Info : Audio Coding 3
Commercial name : Dolby Digital
Codec ID : A_AC3
Duration : 2 h 29 min
Bit rate mode : Constant
Bit rate : 192 kb/s
Channel(s) : 2 channels
Channel positions : Front: L R
Sampling rate : 48.0 kHz
Frame rate : 31.250 FPS (1536 SPF)
Bit depth : 16 bits
Compression mode : Lossy
Stream size : 205 MiB (3%)
Title : Commentary
Language : English
Service kind : Complete Main
Default : No
Forced : No
Text #1
ID : 5
Format : UTF-8
Codec ID : S_TEXT/UTF8
Codec ID/Info : UTF-8 Plain Text
Duration : 2 h 28 min
Bit rate : 64 b/s
Count of elements : 1596
Stream size : 70.4 KiB (0%)
Title : Full
Language : Russian
Default : No
Forced : No
Text #2
ID : 6
Format : UTF-8
Codec ID : S_TEXT/UTF8
Codec ID/Info : UTF-8 Plain Text
Duration : 2 h 28 min
Bit rate : 76 b/s
Count of elements : 2085
Stream size : 83.2 KiB (0%)
Title : SDH
Language : Russian
Default : No
Forced : No
Text #3
ID : 7
Format : UTF-8
Codec ID : S_TEXT/UTF8
Codec ID/Info : UTF-8 Plain Text
Duration : 2 h 28 min
Bit rate : 42 b/s
Count of elements : 1724
Stream size : 46.1 KiB (0%)
Title : Full
Language : English
Default : No
Forced : No
Text #4
ID : 8
Format : UTF-8
Codec ID : S_TEXT/UTF8
Codec ID/Info : UTF-8 Plain Text
Duration : 2 h 28 min
Bit rate : 49 b/s
Count of elements : 2067
Stream size : 53.9 KiB (0%)
Title : SDH
Language : English
Default : No
Forced : No
Text #5
ID : 9
Format : ASS
Codec ID : S_TEXT/ASS
Codec ID/Info : Advanced Sub Station Alpha
Duration : 2 h 28 min
Bit rate : 104 b/s
Count of elements : 2067
Compression mode : Lossless
Stream size : 113 KiB (0%)
Title : SDH Colored
Language : English
Default : No
Forced : No
Menu
00:00:00.000 : en:00:00:00.000
00:11:26.894 : en:00:11:26.894
00:18:12.048 : en:00:18:12.048
00:27:21.972 : en:00:27:21.972
00:35:46.976 : en:00:35:46.976
00:42:21.078 : en:00:42:21.078
00:54:11.037 : en:00:54:11.037
00:59:34.902 : en:00:59:34.902
01:05:05.315 : en:01:05:05.315
01:10:51.828 : en:01:10:51.828
01:17:05.117 : en:01:17:05.117
01:24:12.919 : en:01:24:12.919
01:31:06.165 : en:01:31:06.165
01:41:58.566 : en:01:41:58.566
01:45:55.970 : en:01:45:55.970
01:53:02.228 : en:01:53:02.228
01:58:51.077 : en:01:58:51.077
02:03:56.340 : en:02:03:56.340
02:11:11.441 : en:02:11:11.441
02:17:27.274 : en:02:17:27.274
[cybertorrent.ru].t56003.torrent 
Торрент: Зарегистрирован [ 2018-09-25 15:35 ] · 3B0658138D280D68E57B76E1D5DE8D819D39D70F

Скачать .torrent

Скачать

39 KB

Статус: проверено
Скачан: 0 раз
Размер: 7,75 GB
terms.php
[Профиль] [ЛС]
Показать сообщения:    
Ответить на тему

Текущее время: 23-Фев 15:51

Часовой пояс: UTC + 3



Вы не можете начинать темы
Вы не можете отвечать на сообщения
Вы не можете редактировать свои сообщения
Вы не можете удалять свои сообщения
Вы не можете голосовать в опросах
Вы не можете прикреплять файлы к сообщениям
Вы можете скачивать файлы