BitTorrent клиенты



Лето замерзших фонтанов / Gakhinuli shadrevnebis tselitsadi / The Summer of Frozen Fountains (Вано Бурдули / Vano Burduli) [2015, Грузия, Литва, Россия, мелодрама, HDTV 1080i] VO + Original Georgian

Ответить на тему
Статистика раздачи
Размер:  5,35 GB   |    Зарегистрирован:  4 месяца 27 дней   |    Скачан:  0 раз

Полного источника не было: Никогда

 
   
 
 
Автор Сообщение

RussianGirl ®

Пол: Не указан

Стаж: 1 год

Сообщений: 1309

Создавать темы 25-Сен-2018 15:34

[Цитировать]

Лето замерзших фонтанов / Gakhinuli shadrevnebis tselitsadi / The Summer of Frozen Fountains
Страна: Грузия / Литва / Россия
Жанр: мелодрама
Год выпуска: 2015
Продолжительность: 1:38:51
Перевод: Студийный (одноголосый закадровый) (Перевод: Сергей Митерёв, текст читает: Антон Алексеев)
Субтитры: нет
Оригинальная аудиодорожка: грузинский
Режиссер: Вано Бурдули / Vano Burduli
В ролях: Шота Кристесашвили, Анамария Бурдули, Давид Дарчия, Саломе Демурия, Нуца Кухианидзе, Андрюс Паулавичюс, Иамзе Сухиташвили, Дати Хрикадзе, Сандро Габилая
Описание: Герои фильма — пары разного возраста и одинокий пожилой человек. Все они ищут любовь, которой им так не хватает в повседневной жизни. Все они живут в маленьком городе, и их жизни часто переплетаются так, что они сами даже не подозревают об этом. Мы путешествуем от одного героя к другому и наблюдаем за их жизнью. В течение трех дней истории основных и вспомогательных героев достигают логического конца, что в свою очередь является новым началом для их жизней.
Сэмпл: https://www.sendspace.com/file/v0qrjj
Качество видео: HDTV 1080i
Формат видео: TS
Видео: AVC, 1920х1080 (16:9), 6719 kb/s, 25 FPS
Аудио 1: Русский: MPEG Audio Layer 2, 2 channels, 48.0 kHz, 320 kb/s
Аудио 2: Грузинский: MPEG Audio Layer 2, 2 channels, 48.0 kHz, 320 kb/s

MediaInfo

General
ID : 1 (0x1)
Complete name : leto_zamershih_fontanov.ts
Format : MPEG-TS
File size : 5.35 GiB
Duration : 1h 38mn
Overall bit rate mode : Variable
Overall bit rate : 7 749 Kbps
Maximum Overall bit rate : 35.5 Mbps
Video
ID : 4113 (0x1011)
Menu ID : 1 (0x1)
Format : AVC
Format/Info : Advanced Video Codec
Format profile : High@L4.0
Format settings, CABAC : Yes
Format settings, ReFrames : 4 frames
Codec ID : 27
Duration : 1h 38mn
Bit rate mode : Variable
Bit rate : 6 719 Kbps
Maximum bit rate : 40.0 Mbps
Width : 1 920 pixels
Height : 1 080 pixels
Display aspect ratio : 16:9
Frame rate : 25.000 fps
Standard : Component
Color space : YUV
Chroma subsampling : 4:2:0
Bit depth : 8 bits
Scan type : Interlaced
Scan order : Top Field First
Bits/(Pixel*Frame) : 0.130
Stream size : 4.64 GiB (87%)
Color primaries : BT.709
Transfer characteristics : BT.709
Matrix coefficients : BT.709
Audio #1
ID : 4352 (0x1100)
Menu ID : 1 (0x1)
Format : MPEG Audio
Format version : Version 1
Format profile : Layer 2
Codec ID : 4
Duration : 1h 38mn
Bit rate mode : Constant
Bit rate : 320 Kbps
Channel(s) : 2 channels
Sampling rate : 48.0 KHz
Compression mode : Lossy
Delay relative to video : -100ms
Stream size : 226 MiB (4%)
Language : Russian
Audio #2
ID : 4353 (0x1101)
Menu ID : 1 (0x1)
Format : MPEG Audio
Format version : Version 1
Format profile : Layer 2
Codec ID : 4
Duration : 1h 38mn
Bit rate mode : Constant
Bit rate : 320 Kbps
Channel(s) : 2 channels
Sampling rate : 48.0 KHz
Compression mode : Lossy
Delay relative to video : -95ms
Stream size : 226 MiB (4%)
Language : Georgian

Скриншот c названием фильма

Скриншоты

[cybertorrent.ru].t56019.torrent 
Торрент: Зарегистрирован [ 2018-09-25 15:35 ] · A6CC9A1E182EF46EED88CA387DAEB3F3B897A50B

Скачать .torrent

Скачать

14 KB

Статус: проверено
Скачан: 0 раз
Размер: 5,35 GB
terms.php
[Профиль] [ЛС]
Показать сообщения:    
Ответить на тему

Текущее время: 23-Фев 15:29

Часовой пояс: UTC + 3



Вы не можете начинать темы
Вы не можете отвечать на сообщения
Вы не можете редактировать свои сообщения
Вы не можете удалять свои сообщения
Вы не можете голосовать в опросах
Вы не можете прикреплять файлы к сообщениям
Вы можете скачивать файлы