BitTorrent клиенты



ХБ / Сезон: 2 / Серии: 1-8 из 19 [2018, скетч-шоу, WEB-DLRip]

Ответить на тему
Статистика раздачи
Размер:  2,42 GB   |    Зарегистрирован:  4 месяца 26 дней   |    Скачан:  1 раз

Полного источника не было: 1 месяц 5 дней

 
   
 
 
Автор Сообщение

maria ®

Пол: Не указан

Стаж: 1 год

Сообщений: 438

Создавать темы 25-Сен-2018 15:34

[Цитировать]

ХБ 2
Год выпуска: 2018
Страна: Россия
Жанр: скетч-шоу
Продолжительность: 00:23:00 - выпуск
Перевод: Не требуется
Телеканал: ТНТ-премьер
Режиссёр: Егор Баранов, Дарья Власова
В ролях: Гарик Харламов, Тимур Батрутдинов и др.
Описание: Комедийная программа с участием Гарика Харламова и Тимура Батрутдинова, которая помогает молодым людям принимать правильные решения даже в самых сложных жизненных ситуациях, а также отличать Х от Б. Мы думали, что это просто очень смешная комедия. Но, посмотрев внимательно, мы поняли, что это еще и очень полезная программа. Она может и должна использоваться для профилактики самых разных правонарушений.
Без рекламы.
Sample
Качество: WEB-DLRip - 25Kuzmich
Формат: AVI
Видео: 720x400 (1.80:1), 25 fps, XviD ~1649 kbps avg, 0.23 bit/pixel
Аудио: AC-3, 48,0 kHz, 2/0 (L,R) ch, 192 kbps

Внимание! Раздача ведётся путём добавления новых серий

Раздача ведётся путём добавления новых серий, при каждом добавлении создаётся новый торрент. Чтобы начать докачку новой серии, пользователям необходимо сделать следующее:
- Остановить скачивание.
- Удалить старый торрент у себя из клиента (старые серии удалять не надо).
- Скачать новый торрент и запустить его у себя в клиенте вместо старого, при этом указать клиенту путь в старую папку куда и должно происходить скачивание новых серий.
Ваш клиент при этом должен произвести хеширование (проверку) старой папки (если не производит сам - помогите ему сделать это), и будет докачивать только те серии которых у вас ещё нет. Старые серии при этом не удаляются, а продолжают раздаваться!
Если вы уже удалили старые серии, то предотвратить повторную закачку старых серий можно, отжав галочку в соответствующих местах при запуске нового торрента. По возможности, желательно не удалять старые серии как можно дольше, чтобы релизер не столько продолжал раздавать старые серии, а смог сконцентрироваться на новых.

MediaInfo

General
Complete name : D:\HB.S02.WEB-DLRip.25Kuzmich\HB.s02.e01.WEB-DLRip.25Kuzmich.avi
Format : AVI
Format/Info : Audio Video Interleave
File size : 306 MiB
Duration : 23mn 5s
Overall bit rate : 1 852 Kbps
Writing application : VirtualDubMod 1.5.10.3 | www.virtualdub-fr.org || (build 2550/release)
Writing library : VirtualDubMod build 2550/release
Video
ID : 0
Format : MPEG-4 Visual
Format profile : Advanced Simple@L5
Format settings, BVOP : 1
Format settings, QPel : No
Format settings, GMC : No warppoints
Format settings, Matrix : Default (MPEG)
Codec ID : XVID
Codec ID/Hint : XviD
Duration : 23mn 5s
Bit rate : 1 650 Kbps
Width : 720 pixels
Height : 400 pixels
Display aspect ratio : 16:9
Frame rate : 25.000 fps
Color space : YUV
Chroma subsampling : 4:2:0
Bit depth : 8 bits
Scan type : Progressive
Compression mode : Lossy
Bits/(Pixel*Frame) : 0.229
Stream size : 272 MiB (89%)
Writing library : XviD 1.2.1 (UTC 2008-12-04)
Audio
ID : 1
Format : AC-3
Format/Info : Audio Coding 3
Mode extension : CM (complete main)
Format settings, Endianness : Big
Codec ID : 2000
Duration : 23mn 5s
Bit rate mode : Constant
Bit rate : 192 Kbps
Channel count : 2 channels
Channel positions : Front: L R
Sampling rate : 48.0 KHz
Bit depth : 16 bits
Compression mode : Lossy
Stream size : 31.7 MiB (10%)
Alignment : Split accross interleaves
Interleave, duration : 40 ms (1.00 video frame)
Interleave, preload duration : 500 ms

Скриншоты


Все раздачи "ХБ" на Рутрекере
[cybertorrent.ru].t56020.torrent 
Торрент: Зарегистрирован [ 2018-09-25 15:35 ] · 7FC0EAA4BE605026B1B1E6DFDA31B63D17500839

Скачать .torrent

Скачать

13 KB

Статус: проверено
Скачан: 1 раз
Размер: 2,42 GB
terms.php
[Профиль] [ЛС]
Показать сообщения:    
Ответить на тему

Текущее время: 22-Фев 03:51

Часовой пояс: UTC + 3



Вы не можете начинать темы
Вы не можете отвечать на сообщения
Вы не можете редактировать свои сообщения
Вы не можете удалять свои сообщения
Вы не можете голосовать в опросах
Вы не можете прикреплять файлы к сообщениям
Вы можете скачивать файлы