Статистика раздачи
Размер:  274 MB   |    Зарегистрирован:  2 месяца 10 дней   |    Скачан:  0 раз

Полного источника не было: Никогда

 
   
 
 

Keeper ®

Пол:
Не указан
Стаж:
7 месяцев 4 дня
Сообщений:
507

- Giorgos Hatzipieris -
- I Epistrofi Tou Tembeli Drakou -
--Жанр: Греческая детская музыка
Страна: Greece
Год издания диска: 2009
Издатель (лейбл): Mercury
Номер по каталогу: 0602527 290 898
Аудиокодек: FLAC
Тип рипа: image+.cue
Битрейт аудио: lossless
Продолжительность: 00:46:28
Источник: собственный рип
Наличие сканов в содержимом раздачи: да-Треклист:
01. Elli Paspala - O Asprodondis Karharias (03:08)
02. Dionysis Savvopoulos - O Kokkoras Xipnai (02:56)
03. Sofia Papazoglou - O Pagotatzis (03:16)
04. Alkinoos Ioannidis - O Karaolos (02:29)
05. Eleftheria Arvanitaki - Gia Ton Patera (03:21)
06. Giorgos Hatzipieris - I Domata Kamikazi (03:31)
07. Nea Genia Ziridi Children Chorus - Gia Pou, Gia Pou, Gia Pou (03:11)
08. Apostolos Rizos - Dio Fili (04:07)
09. Mariastella Tzanoudaki - To Aspro Gourounaki (01:52)
10. Fivos Delivorias - Itan Enas Pondikos (03:29)
11. Doros Dimosthenous - Aorates Skies (03:13)
12. Melina Kana - Ah Melissoula (01:58)
13. Dionysis Savvopoulos - Stou Kenouriou Hronou Tin Avli (03:11)
14. Fivos Delivorias, Alkinoos Ioannidis, Giorgos & Petros Hatzipieris & Chorus - To Dendro (03:50)
15. Alkinoos Ioannidis - To Nanourisma Tis Petaloudas (02:56)

Лог создания рипа

Exact Audio Copy V1.0 beta 3 from 29. August 2011
EAC extraction logfile from 5. September 2014, 20:26
Giorgos Hatzipieris / I Epistrofi Tou Tembeli Drakou
Used drive : HL-DT-STDVDRAM GSA-4167B Adapter: 0 ID: 0
Read mode : Secure
Utilize accurate stream : Yes
Defeat audio cache : Yes
Make use of C2 pointers : No
Read offset correction : 667
Overread into Lead-In and Lead-Out : No
Fill up missing offset samples with silence : Yes
Delete leading and trailing silent blocks : No
Null samples used in CRC calculations : Yes
Used interface : Native Win32 interface for Win NT & 2000
Used output format : User Defined Encoder
Selected bitrate : 128 kBit/s
Quality : High
Add ID3 tag : Yes
Command line compressor : C:\Program Files\Exact Audio Copy\Flac\flac.exe
Additional command line options : -V -8 -T "Date=%year%" -T "Genre=%genre%" %source%
TOC of the extracted CD
Track | Start | Length | Start sector | End sector
---------------------------------------------------------
1 | 0:00.00 | 3:08.12 | 0 | 14111
2 | 3:08.12 | 2:56.64 | 14112 | 27375
3 | 6:05.01 | 3:16.05 | 27376 | 42080
4 | 9:21.06 | 2:29.69 | 42081 | 53324
5 | 11:51.00 | 3:21.30 | 53325 | 68429
6 | 15:12.30 | 3:31.01 | 68430 | 84255
7 | 18:43.31 | 3:11.62 | 84256 | 98642
8 | 21:55.18 | 4:07.58 | 98643 | 117225
9 | 26:03.01 | 1:52.12 | 117226 | 125637
10 | 27:55.13 | 3:29.54 | 125638 | 141366
11 | 31:24.67 | 3:13.32 | 141367 | 155873
12 | 34:38.24 | 1:58.13 | 155874 | 164736
13 | 36:36.37 | 3:11.27 | 164737 | 179088
14 | 39:47.64 | 3:50.09 | 179089 | 196347
15 | 43:37.73 | 2:56.35 | 196348 | 209582
Range status and errors
Selected range
Filename D:\CASHIKO\Giorgos Hatzipieris - I Epistrofi Tou Tembeli Drakou.wav
Peak level 100.0 %
Extraction speed 7.1 X
Range quality 99.9 %
Test CRC E996DA0B
Copy CRC E996DA0B
Copy OK
No errors occurred
AccurateRip summary
Track 1 accurately ripped (confidence 1) [D0E99C70] (AR v1)
Track 2 accurately ripped (confidence 1) [5281A52F] (AR v1)
Track 3 accurately ripped (confidence 1) [F6CBEACF] (AR v1)
Track 4 accurately ripped (confidence 1) [FE74CB18] (AR v1)
Track 5 accurately ripped (confidence 1) [E4B7C2DF] (AR v1)
Track 6 accurately ripped (confidence 1) [3BF90E08] (AR v1)
Track 7 accurately ripped (confidence 1) [0A86158B] (AR v1)
Track 8 accurately ripped (confidence 1) [35F891E2] (AR v1)
Track 9 accurately ripped (confidence 1) [FAF29DD8] (AR v1)
Track 10 accurately ripped (confidence 1) [EDC3E211] (AR v1)
Track 11 accurately ripped (confidence 1) [4FC6E119] (AR v1)
Track 12 accurately ripped (confidence 1) [C1373D3E] (AR v1)
Track 13 accurately ripped (confidence 1) [2862935C] (AR v1)
Track 14 accurately ripped (confidence 1) [2AB72F66] (AR v1)
Track 15 accurately ripped (confidence 1) [1940EB6F] (AR v1)
All tracks accurately ripped
End of status report
---- CUETools DB Plugin V2.1.3
[CTDB TOCID: W8ZQPZIDjz6EXG5R8WZ_RcoyHpQ-] disk not present in database, Submit result: W8ZQPZIDjz6EXG5R8WZ_RcoyHpQ- has been uploaded
==== Log checksum 86910DEA926E043DBAE667138D1CD0C57903CA43CA840DECEF53228279DCA92D ====

Содержание индексной карты (.CUE)

REM GENRE Children`s
REM DATE 2009
REM DISCID DB0AEA0F
REM COMMENT "ExactAudioCopy v1.0b3"
PERFORMER "Giorgos Hatzipieris"
TITLE "I Epistrofi Tou Tembeli Drakou"
FILE "Giorgos Hatzipieris - I Epistrofi Tou Tembeli Drakou.flac" WAVE
TRACK 01 AUDIO
TITLE "O Asprodondis Karharias"
PERFORMER "Elli Paspala"
INDEX 01 00:00:00
TRACK 02 AUDIO
TITLE "O Kokkoras Xipnai"
PERFORMER "Dionysis Savvopoulos"
INDEX 01 03:08:12
TRACK 03 AUDIO
TITLE "O Pagotatzis"
PERFORMER "Sofia Papazoglou"
INDEX 01 06:05:01
TRACK 04 AUDIO
TITLE "O Karaolos"
PERFORMER "Alkinoos Ioannidis"
INDEX 01 09:21:06
TRACK 05 AUDIO
TITLE "Gia Ton Patera"
PERFORMER "Eleftheria Arvanitaki"
INDEX 01 11:51:00
TRACK 06 AUDIO
TITLE "I Domata Kamikazi"
PERFORMER "Giorgos Hatzipieris"
INDEX 01 15:12:30
TRACK 07 AUDIO
TITLE "Gia Pou, Gia Pou, Gia Pou"
PERFORMER "Nea Genia Ziridi Children Chorus"
INDEX 01 18:43:31
TRACK 08 AUDIO
TITLE "Dio Fili"
PERFORMER "Apostolos Rizos"
INDEX 01 21:55:18
TRACK 09 AUDIO
TITLE "To Aspro Gourounaki"
PERFORMER "Mariastella Tzanoudaki"
INDEX 01 26:03:01
TRACK 10 AUDIO
TITLE "Itan Enas Pondikos"
PERFORMER "Fivos Delivorias"
INDEX 01 27:55:13
TRACK 11 AUDIO
TITLE "Aorates Skies"
PERFORMER "Doros Dimosthenous"
INDEX 01 31:24:67
TRACK 12 AUDIO
TITLE "Ah Melissoula"
PERFORMER "Melina Kana"
INDEX 01 34:38:24
TRACK 13 AUDIO
TITLE "Stou Kenouriou Hronou Tin Avli"
PERFORMER "Dionysis Savvopoulos"
INDEX 01 36:36:37
TRACK 14 AUDIO
TITLE "To Dendro"
PERFORMER "Fivos Delivorias, Alkinoos Ioannidis, Giorgos & Petros Hatzipieris & Chorus"
INDEX 01 39:47:64
TRACK 15 AUDIO
TITLE "To Nanourisma Tis Petaloudas"
PERFORMER "Alkinoos Ioannidis"
INDEX 01 43:37:73

Лог проверки качества

-----------------------
DON'T MODIFY THIS FILE
-----------------------
PERFORMER: auCDtect Task Manager, ver. 1.5.1RC4 build 1.5.1.5
Copyright (c) 2008-2010 y-soft. All rights reserved
http://y-soft.org
ANALYZER: auCDtect: CD records authenticity detector, version 0.8.2
Copyright (c) 2004 Oleg Berngardt. All rights reserved.
Copyright (c) 2004 Alexander Djourik. All rights reserved.
FILE: Giorgos Hatzipieris - I Epistrofi Tou Tembeli Drakou.flac
Size: 285557605 Hash: DF98218FA9D65AC2434BE981BC8F198E Accuracy: -m0
Conclusion: CDDA 100%
Signature: CC23A3B3C688E38B251790953A3D279F22C48619
-

Back, CD

[cybertorrent.ru].t56028.torrent 
Торрент: Зарегистрирован [ 2018-07-08 17:53 ] · C10623786694AD6C53CDE3BECB3F2805B301BDC1

Скачать .torrent

Скачать

12 KB

Статус: проверено
Скачан: 0 раз
Размер: 274 MB
Профиль [ЛС]
Показать сообщения:    

Текущее время: 19-Сен 16:56

Часовой пояс: UTC ± 0



Вы не можете начинать темы
Вы не можете отвечать на сообщения
Вы не можете редактировать свои сообщения
Вы не можете удалять свои сообщения
Вы не можете голосовать в опросах
Вы не можете прикреплять файлы к сообщениям
Вы можете скачивать файлы
Torrents24.ru открытый BitTorrent Torrents24.pl открытый BitTorrent CyberTorrent.ru открытый BitTorrent BtList.ru рейтинг BitTorrent трекеров Яндекс.Метрика