BitTorrent клиенты



Детсадовский полицейский 2 / Kindergarten Cop 2 (Дон Майкл Пол / Don Michael Paul) [2016, США, Комедия, DVD9] Dub (R5 (НД Плэй)) + Sub Rus + Original Eng

Ответить на тему
Статистика раздачи
Размер:  7,36 GB   |    Зарегистрирован:  4 месяца 27 дней   |    Скачан:  0 раз

Полного источника не было: Никогда

 
   
 
 
Автор Сообщение

Alino4ka ®

Пол: Не указан

Стаж: 1 год

Сообщений: 842

Создавать темы 25-Сен-2018 15:33

[Цитировать]

Детсадовский полицейский 2 / Kindergarten Cop 2
Страна: США
Студия: Imagine Entertainment, Universal 1440 Entertainment, Universal Family Entertainment, Where's Arnold
Жанр: Комедия
Год выпуска: 2016
Продолжительность: 01:36:02
Перевод: Профессиональный (дублированный) | R5 (НД Плэй)
Субтитры: Английские, чешские, венгерские, польские, русские, болгарские, греческие, румынские
Оригинальная аудиодорожка: английский
Режиссер: Дон Майкл Пол / Don Michael Paul
В ролях: Дольф Лундгрен, Фиона Врум, Сара Стрэйндж, Дарла Тейлор, Алекс Паунович, Билл Беллами, Джоди Томпсон, Энид-Рэй Адамс, Ребекка Олсон, Рафаэль Алехандро
Описание: Главный герой и его верный напарник должны найти съемный накопитель с секретными данными, касающимися федеральной программы защиты свидетелей, который, по случайному стечению обстоятельств, оказывается в руках прелестной воспитательницы детского сада. Но ситуацию усугубляет то, что за этой информацией параллельно охотятся албанские бандиты.-| IMDb | КиноПоиск | Cэмпл |
За предоставленный DVD, огромное спасибо AKIM2B-Дополнительные материалы на DVD:
Удаленные эпизоды:
- Воспроизвести все;
- Бабочка;
- Вы знакомы с лютиком;
- Придется самому делать черную работу;
- Троянская война: расширенная сцена;
- Идеальная тренировка;
- А вы неплохой учитель;
- Дай ему шанс.
Смешные моменты;
Детсадовский полицейский 2: Под прикрытием-Меню: Есть, статичное, озвученное, на русском языке (Мультиязычное)
Тип релиза: DVD9
Контейнер: DVD-Video
Видео: PAL 16:9 (720x576) VBR Auto Letterboxed, ~ 9147.69 kbps avg, fps 25.000
Аудио 1: English (Dolby AC3, 6 ch) | AC3, 3/2 (L,C,R,SL,SR)+LFE ch, 384 kbps, 48.0 kHz, 16 bits
Аудио 2: Czech(Ceske) (Dolby AC3, 6 ch) | AC3, 3/2 (L,C,R,SL,SR)+LFE ch, 384 kbps, 48.0 kHz, 16 bits
Аудио 3: Magyar (Dolby AC3, 6 ch) | AC3, 3/2 (L,C,R,SL,SR)+LFE ch, 384 kbps, 48.0 kHz, 16 bits
Аудио 4: Polish (Dolby AC3, 6 ch) | AC3, 3/2 (L,C,R,SL,SR)+LFE ch, 384 kbps, 48.0 kHz, 16 bits
Аудио 5: Russian (Dolby AC3, 6 ch) | AC3, 3/2 (L,C,R,SL,SR)+LFE ch, 384 kbps, 48.0 kHz, 16 bits
Формат субтитров: prerendered (DVD/IDX+SUB)

MediaInfo

Title: Detsadovskyi.Policeyisii.2016.DVD9
Size: 7.36 Gb ( 7 716 730,00 KBytes ) - DVD-9
Enabled regions: 1, 2, 3, 4, 5, 6, 7, 8
VTS_01 :
Play Length: 00:00:25
Video: PAL 16:9 (720x576) VBR, Auto Letterboxed
Audio:
English, AC3, 3/2 (L,C,R,SL,SR)+LFE ch, 384 kbps, Delay 0 mSec
VTS_02 :
Play Length: 00:00:05+00:04:00
Video: PAL 16:9 (720x576) VBR, Auto Pan&Scan
VTS_03 :
Play Length: 00:00:08
Video: PAL 16:9 (720x576) VBR, Auto Letterboxed
Audio:
English, AC3, 3/2 (L,C,R,SL,SR)+LFE ch, 384 kbps, Delay 0 mSec
VTS_04 :
Play Length: 00:00:00
Video: PAL 16:9 (720x576) VBR, Auto Letterboxed
VTS_05 :
Play Length: 00:10:10+00:00:38+00:01:02+00:00:50+00:02:34+00:01:56+00:01:05+{00:02:12}
Video: PAL 16:9 (720x576) VBR, Auto Letterboxed
Audio:
English, AC3, 2/0 (L,R) ch, 192 kbps, Delay 0 mSec
Subtitles:
English
Russian
VTS_06 :
Play Length: 00:00:00+00:02:20+00:01:05
Video: PAL 16:9 (720x576) VBR, Auto Letterboxed
Audio:
English, AC3, 3/2 (L,C,R,SL,SR)+LFE ch, 384 kbps, Delay -49 mSec
Subtitles:
English
Russian
VTS_07 :
Play Length: 01:36:02
Video: PAL 16:9 (720x576) VBR, Auto Letterboxed
Audio:
English, AC3, 3/2 (L,C,R,SL,SR)+LFE ch, 384 kbps, Delay 0 mSec
Czech(Ceske), AC3, 3/2 (L,C,R,SL,SR)+LFE ch, 384 kbps, Delay 0 mSec
Magyar, AC3, 3/2 (L,C,R,SL,SR)+LFE ch, 384 kbps, Delay 0 mSec
Polish, AC3, 3/2 (L,C,R,SL,SR)+LFE ch, 384 kbps, Delay 0 mSec
Russian, AC3, 3/2 (L,C,R,SL,SR)+LFE ch, 384 kbps, Delay 0 mSec
Subtitles:
English
Czech(Ceske)
Magyar
Polish
Russian
Bulgarian
Greek
Romanian
English
Czech(Ceske)
Magyar
Russian
VTS_08 :
Play Length: 00:00:00+{00:00:00}
Video: PAL 16:9 (720x576) VBR, Auto Letterboxed
VTS_09 :
Play Length: 00:02:36+00:05:13
Video: PAL 16:9 (720x576) VBR, Auto Letterboxed
Audio:
English, AC3, 2/0 (L,R) ch, 192 kbps, Delay 0 mSec
Subtitles:
English
Russian
VTS_10 :
Play Length: 00:00:00+{00:00:00}+{00:00:00}+{00:00:00}+{00:00:00}+{00:00:00}+{00:00:00}+{00:00:00}+{00:00:00}+{00:00:00}+{00:00:00}
Video: PAL 16:9 (720x576) VBR, Auto Letterboxed
=====================================================
Общее
Полное имя : C:\Detsadovskyi.Policeyisii.2016.DVD9\VIDEO_TS\VTS_07_1.VOB
Формат : MPEG-PS
Размер файла : 1024 Мбайт
Продолжительность : 15 м. 35 с.
Режим общего битрейта : Переменный
Общий поток : 9180 Кбит/сек
Видео
Идентификатор : 224 (0xE0)
Формат : MPEG Video
Версия формата : Version 2
Профиль формата : Main@Main
Настройки формата : CustomMatrix / BVOP
Параметр BVOP формата : Да
Параметр матрицы формата : Выборочная
Параметр GOP формата : Variable
Структура изображения : Frame
Продолжительность : 15 м. 35 с.
Вид битрейта : Переменный
Битрейт : 7077 Кбит/сек
Максимальный битрейт : 9800 Кбит/сек
Ширина : 720 пикселей
Высота : 576 пикселей
Соотношение сторон : 16:9
Частота кадров : 25,000 кадров/сек
Стандарт вещания : PAL
Цветовое пространство : YUV
Субдискретизация насыщенности : 4:2:0
Битовая глубина : 8 бит
Тип развёртки : Чересстрочная
Порядок развёртки : Верхнее поле первое
Метод сжатия : С потерями
Бит/(Пиксели*Кадры) : 0.683
Временной код первого кадра : 00:59:59:00
Оригинал временного кода : Group of pictures header
Размер потока : 789 Мбайт (77%)
Аудио #1
Идентификатор : 189 (0xBD)-128 (0x80)
Формат : AC-3
Формат/Информация : Audio Coding 3
Режим смешивания : DVD-Video
Продолжительность : 15 м. 35 с.
Вид битрейта : Постоянный
Битрейт : 384 Кбит/сек
Каналы : 6 каналов
Расположение каналов : Front: L C R, Side: L R, LFE
Частота : 48,0 КГц
Частота кадров : 31,250 кадров/сек (1536 SPF)
Битовая глубина : 16 бит
Метод сжатия : С потерями
Размер потока : 42,8 Мбайт (4%)
ServiceKind/String : Complete Main
Аудио #2
Идентификатор : 189 (0xBD)-129 (0x81)
Формат : AC-3
Формат/Информация : Audio Coding 3
Режим смешивания : DVD-Video
Продолжительность : 15 м. 35 с.
Вид битрейта : Постоянный
Битрейт : 384 Кбит/сек
Каналы : 6 каналов
Расположение каналов : Front: L C R, Side: L R, LFE
Частота : 48,0 КГц
Частота кадров : 31,250 кадров/сек (1536 SPF)
Битовая глубина : 16 бит
Метод сжатия : С потерями
Размер потока : 42,8 Мбайт (4%)
ServiceKind/String : Complete Main
Аудио #3
Идентификатор : 189 (0xBD)-130 (0x82)
Формат : AC-3
Формат/Информация : Audio Coding 3
Режим смешивания : DVD-Video
Продолжительность : 15 м. 35 с.
Вид битрейта : Постоянный
Битрейт : 384 Кбит/сек
Каналы : 6 каналов
Расположение каналов : Front: L C R, Side: L R, LFE
Частота : 48,0 КГц
Частота кадров : 31,250 кадров/сек (1536 SPF)
Битовая глубина : 16 бит
Метод сжатия : С потерями
Размер потока : 42,8 Мбайт (4%)
ServiceKind/String : Complete Main
Аудио #4
Идентификатор : 189 (0xBD)-131 (0x83)
Формат : AC-3
Формат/Информация : Audio Coding 3
Режим смешивания : DVD-Video
Продолжительность : 15 м. 35 с.
Вид битрейта : Постоянный
Битрейт : 384 Кбит/сек
Каналы : 6 каналов
Расположение каналов : Front: L C R, Side: L R, LFE
Частота : 48,0 КГц
Частота кадров : 31,250 кадров/сек (1536 SPF)
Битовая глубина : 16 бит
Метод сжатия : С потерями
Размер потока : 42,8 Мбайт (4%)
ServiceKind/String : Complete Main
Аудио #5
Идентификатор : 189 (0xBD)-132 (0x84)
Формат : AC-3
Формат/Информация : Audio Coding 3
Режим смешивания : DVD-Video
Продолжительность : 15 м. 35 с.
Вид битрейта : Постоянный
Битрейт : 384 Кбит/сек
Каналы : 6 каналов
Расположение каналов : Front: L C R, Side: L R, LFE
Частота : 48,0 КГц
Частота кадров : 31,250 кадров/сек (1536 SPF)
Битовая глубина : 16 бит
Метод сжатия : С потерями
Размер потока : 42,8 Мбайт (4%)
ServiceKind/String : Complete Main
Текст #1
Идентификатор : 189 (0xBD)-32 (0x20)
Формат : RLE
Формат/Информация : Run-length encoding
Режим смешивания : DVD-Video
Текст #2
Идентификатор : 189 (0xBD)-33 (0x21)
Формат : RLE
Формат/Информация : Run-length encoding
Режим смешивания : DVD-Video
Текст #3
Идентификатор : 189 (0xBD)-34 (0x22)
Формат : RLE
Формат/Информация : Run-length encoding
Режим смешивания : DVD-Video
Текст #4
Идентификатор : 189 (0xBD)-35 (0x23)
Формат : RLE
Формат/Информация : Run-length encoding
Режим смешивания : DVD-Video
Текст #5
Идентификатор : 189 (0xBD)-36 (0x24)
Формат : RLE
Формат/Информация : Run-length encoding
Режим смешивания : DVD-Video
Текст #6
Идентификатор : 189 (0xBD)-37 (0x25)
Формат : RLE
Формат/Информация : Run-length encoding
Режим смешивания : DVD-Video
Текст #7
Идентификатор : 189 (0xBD)-38 (0x26)
Формат : RLE
Формат/Информация : Run-length encoding
Режим смешивания : DVD-Video
Текст #8
Идентификатор : 189 (0xBD)-39 (0x27)
Формат : RLE
Формат/Информация : Run-length encoding
Режим смешивания : DVD-Video
Меню

Скриншоты меню

Скриншоты

Скриншоты доп. материалов

[cybertorrent.ru].t56033.torrent 
Торрент: Зарегистрирован [ 2018-09-25 15:35 ] · 0544D8D3BEE69650398ECCBF5F41CF746E61943D

Скачать .torrent

Скачать

39 KB

Статус: проверено
Скачан: 0 раз
Размер: 7,36 GB
terms.php
[Профиль] [ЛС]
Показать сообщения:    
Ответить на тему

Текущее время: 23-Фев 15:28

Часовой пояс: UTC + 3



Вы не можете начинать темы
Вы не можете отвечать на сообщения
Вы не можете редактировать свои сообщения
Вы не можете удалять свои сообщения
Вы не можете голосовать в опросах
Вы не можете прикреплять файлы к сообщениям
Вы можете скачивать файлы