Статистика раздачи
Размер:  149 MB   |    Зарегистрирован:  9 дней   |    Скачан:  0 раз

Полного источника не было: Никогда

 
   
 
 

Keeper ®

Пол:
Не указан
Стаж:
5 месяцев 2 дня
Сообщений:
495

Billie Joe Armstrong / Rockabye Baby! Lullaby Renditions of Green Day
-Жанр: Chillout, Lounge, Lullaby
Страна-производитель диска: USA
Год издания диска: 2008
Страна: USA-Аудиокодек: FLAC
Тип рипа: tracks+.cue
Битрейт аудио: lossless
Продолжительность: 00:40:51-Источник: скачано с waffles
Наличие сканов в содержимом раздачи: нет-Треклист:
01. Basket Case [00:04:26]
02. Longview [00:04:37]
03. American Idiot [00:04:48]
04. Boulevard of Broken Dreams [00:04:27]
05. Welcome to Paradise [00:05:40]
06. When I Come Around [00:03:15]
07. Warning [00:04:25]
08. Sweet Children [00:03:04]
09. Good Riddance [00:02:19]
10. Walking Contradiction [00:03:46]-

Лог создания рипа

Exact Audio Copy V1.0 beta 3 from 29. August 2011
EAC extraction logfile from 20. October 2013, 16:48
Rockabye Baby! / Lullaby Renditions of Green Day
Used drive : hp DVDWBD TS-TB23L Adapter: 0 ID: 1
Read mode : Secure
Utilize accurate stream : Yes
Defeat audio cache : Yes
Make use of C2 pointers : No
Read offset correction : 6
Overread into Lead-In and Lead-Out : No
Fill up missing offset samples with silence : Yes
Delete leading and trailing silent blocks : No
Null samples used in CRC calculations : Yes
Used interface : Native Win32 interface for Win NT & 2000
Gap handling : Appended to previous track
Used output format : User Defined Encoder
Selected bitrate : 1024 kBit/s
Quality : High
Add ID3 tag : No
Command line compressor : C:\Program Files (x86)\FLAC\flac.exe
Additional command line options : -8 -V -T "artist=%artist%" -T "title=%title%" -T "album=%albumtitle%" -T "date=%year%" -T "tracknumber=%tracknr%" -T "genre=%genre%" %source%
TOC of the extracted CD
Track | Start | Length | Start sector | End sector
---------------------------------------------------------
1 | 0:00.00 | 4:26.64 | 0 | 20013
2 | 4:26.64 | 4:37.57 | 20014 | 40845
3 | 9:04.46 | 4:48.33 | 40846 | 62478
4 | 13:53.04 | 4:27.43 | 62479 | 82546
5 | 18:20.47 | 5:40.00 | 82547 | 108046
6 | 24:00.47 | 3:15.43 | 108047 | 122714
7 | 27:16.15 | 4:25.12 | 122715 | 142601
8 | 31:41.27 | 3:04.30 | 142602 | 156431
9 | 34:45.57 | 2:19.40 | 156432 | 166896
10 | 37:05.22 | 3:46.00 | 166897 | 183846
Track 1
Filename C:\Users\Mark\Desktop\EAC Rips\Rockabye Baby!\Rockabye Baby! - Lullaby Renditions of Green Day (FLAC)\01 Basket Case.wav
Pre-gap length 0:00:02.00
Peak level 87.1 %
Extraction speed 1.4 X
Track quality 100.0 %
Test CRC ACDF17A8
Copy CRC ACDF17A8
Accurately ripped (confidence 3) [04E495C9] (AR v2)
Copy OK
Track 2
Filename C:\Users\Mark\Desktop\EAC Rips\Rockabye Baby!\Rockabye Baby! - Lullaby Renditions of Green Day (FLAC)\02 Longview.wav
Peak level 99.2 %
Extraction speed 1.6 X
Track quality 100.0 %
Test CRC 90885C73
Copy CRC 90885C73
Accurately ripped (confidence 3) [ED13FD89] (AR v2)
Copy OK
Track 3
Filename C:\Users\Mark\Desktop\EAC Rips\Rockabye Baby!\Rockabye Baby! - Lullaby Renditions of Green Day (FLAC)\03 American Idiot.wav
Peak level 92.7 %
Extraction speed 1.5 X
Track quality 100.0 %
Test CRC 7E44499D
Copy CRC 7E44499D
Accurately ripped (confidence 3) [E3025411] (AR v2)
Copy OK
Track 4
Filename C:\Users\Mark\Desktop\EAC Rips\Rockabye Baby!\Rockabye Baby! - Lullaby Renditions of Green Day (FLAC)\04 Boulevard of Broken Dreams.wav
Peak level 91.9 %
Extraction speed 1.6 X
Track quality 99.9 %
Test CRC C5E2CE73
Copy CRC C5E2CE73
Accurately ripped (confidence 3) [281EFA4A] (AR v2)
Copy OK
Track 5
Filename C:\Users\Mark\Desktop\EAC Rips\Rockabye Baby!\Rockabye Baby! - Lullaby Renditions of Green Day (FLAC)\05 Welcome to Paradise.wav
Peak level 99.5 %
Extraction speed 1.9 X
Track quality 100.0 %
Test CRC B3151F62
Copy CRC B3151F62
Accurately ripped (confidence 3) [B1A86D22] (AR v2)
Copy OK
Track 6
Filename C:\Users\Mark\Desktop\EAC Rips\Rockabye Baby!\Rockabye Baby! - Lullaby Renditions of Green Day (FLAC)\06 When I Come Around.wav
Peak level 99.7 %
Extraction speed 1.9 X
Track quality 100.0 %
Test CRC B0DBFEC8
Copy CRC B0DBFEC8
Accurately ripped (confidence 3) [5AAE28DA] (AR v2)
Copy OK
Track 7
Filename C:\Users\Mark\Desktop\EAC Rips\Rockabye Baby!\Rockabye Baby! - Lullaby Renditions of Green Day (FLAC)\07 Warning.wav
Peak level 70.6 %
Extraction speed 2.0 X
Track quality 100.0 %
Test CRC AAD30712
Copy CRC AAD30712
Accurately ripped (confidence 3) [92D8BB77] (AR v2)
Copy OK
Track 8
Filename C:\Users\Mark\Desktop\EAC Rips\Rockabye Baby!\Rockabye Baby! - Lullaby Renditions of Green Day (FLAC)\08 Sweet Children.wav
Peak level 97.1 %
Extraction speed 2.0 X
Track quality 100.0 %
Test CRC F23B75DB
Copy CRC F23B75DB
Accurately ripped (confidence 3) [2A0ACCC5] (AR v2)
Copy OK
Track 9
Filename C:\Users\Mark\Desktop\EAC Rips\Rockabye Baby!\Rockabye Baby! - Lullaby Renditions of Green Day (FLAC)\09 Good Riddance.wav
Peak level 100.0 %
Extraction speed 2.1 X
Track quality 100.0 %
Test CRC D6713557
Copy CRC D6713557
Accurately ripped (confidence 3) [A5AEC072] (AR v2)
Copy OK
Track 10
Filename C:\Users\Mark\Desktop\EAC Rips\Rockabye Baby!\Rockabye Baby! - Lullaby Renditions of Green Day (FLAC)\10 Walking Contradiction.wav
Peak level 100.0 %
Extraction speed 2.3 X
Track quality 100.0 %
Test CRC 157CFF86
Copy CRC 157CFF86
Accurately ripped (confidence 3) [51799139] (AR v2)
Copy OK
All tracks accurately ripped
No errors occurred
End of status report
---- CUETools DB Plugin V2.1.3
[CTDB TOCID: 0FblgVd_e2Tu0kABFEGbCYitX0s-] found, Submit result: 0FblgVd_e2Tu0kABFEGbCYitX0s- has been confirmed
[27cdb64d] (1/1) Accurately ripped
==== Log checksum B9627A72F7586B6430522F128C8BEC3F0EA01F88201CEC318F66A57F54162699 ====
-

Содержание индексной карты (.CUE)

REM GENRE Instrumental
REM DISCID 7D09930A
REM COMMENT "ExactAudioCopy v1.0b3"
PERFORMER "Rockabye Baby!"
TITLE "Lullaby Renditions of Green Day"
FILE "01 Basket Case.wav" WAVE
TRACK 01 AUDIO
TITLE "Basket Case"
PERFORMER "Rockabye Baby!"
INDEX 01 00:00:00
FILE "02 Longview.wav" WAVE
TRACK 02 AUDIO
TITLE "Longview"
PERFORMER "Rockabye Baby!"
INDEX 01 00:00:00
FILE "03 American Idiot.wav" WAVE
TRACK 03 AUDIO
TITLE "American Idiot"
PERFORMER "Rockabye Baby!"
INDEX 01 00:00:00
FILE "04 Boulevard of Broken Dreams.wav" WAVE
TRACK 04 AUDIO
TITLE "Boulevard of Broken Dreams"
PERFORMER "Rockabye Baby!"
INDEX 01 00:00:00
FILE "05 Welcome to Paradise.wav" WAVE
TRACK 05 AUDIO
TITLE "Welcome to Paradise"
PERFORMER "Rockabye Baby!"
INDEX 01 00:00:00
FILE "06 When I Come Around.wav" WAVE
TRACK 06 AUDIO
TITLE "When I Come Around"
PERFORMER "Rockabye Baby!"
INDEX 01 00:00:00
FILE "07 Warning.wav" WAVE
TRACK 07 AUDIO
TITLE "Warning"
PERFORMER "Rockabye Baby!"
INDEX 01 00:00:00
FILE "08 Sweet Children.wav" WAVE
TRACK 08 AUDIO
TITLE "Sweet Children"
PERFORMER "Rockabye Baby!"
INDEX 01 00:00:00
FILE "09 Good Riddance.wav" WAVE
TRACK 09 AUDIO
TITLE "Good Riddance"
PERFORMER "Rockabye Baby!"
INDEX 01 00:00:00
FILE "10 Walking Contradiction.wav" WAVE
TRACK 10 AUDIO
TITLE "Walking Contradiction"
PERFORMER "Rockabye Baby!"
INDEX 01 00:00:00
-
[cybertorrent.ru].t56037.torrent 
Торрент: Зарегистрирован [ 2018-07-08 17:53 ] · BAFB95A4213329D0367CB6C385ECFB6AD4295343

Скачать .torrent

Скачать

13 KB

Статус: проверено
Скачан: 0 раз
Размер: 149 MB
Профиль [ЛС]
Показать сообщения:    

Текущее время: 18-Июл 04:49

Часовой пояс: UTC ± 0



Вы не можете начинать темы
Вы не можете отвечать на сообщения
Вы не можете редактировать свои сообщения
Вы не можете удалять свои сообщения
Вы не можете голосовать в опросах
Вы не можете прикреплять файлы к сообщениям
Вы можете скачивать файлы