BitTorrent клиенты



Врата Рая / Небесные врата / Heaven's gate (Майкл Чимино / Michael Cimino) [1980, США, драма, вестерн, исторический, BDRemux 1080p] [Criterion] [extended cut] MVO (5 канал) + DVO (НТВ+) + AVO (Дольский) + Sub (Rus, Eng) + Original (Eng)

Ответить на тему
Статистика раздачи
Размер:  48,01 GB   |    Зарегистрирован:  4 месяца 27 дней   |    Скачан:  0 раз

Полного источника не было: Никогда

 
   
 
 
Автор Сообщение

RussianGirl ®

Пол: Не указан

Стаж: 1 год

Сообщений: 1309

Создавать темы 25-Сен-2018 15:33

[Цитировать]

Врата Рая / Небесные врата / Heaven's gate
Страна: США
Студия: Partisan Productions
Жанр: драма, вестерн, исторический
Год выпуска: 1980
Продолжительность: 03:37:04
Перевод: Профессиональный (многоголосый закадровый) - ТРК "СПб 5 канал" со вставками авторской одноголоски и выборочных субтитров
Перевод 2: Профессиональный (двухголосый закадровый) - НТВ+
Перевод 3: Авторский (одноголосый закадровый) - Андрей Дольский
Субтитры: русские (на иностранную речь - Илья Гришкин), русские (Илья Гришкин), английские
Оригинальная аудиодорожка: английский
Режиссер: Майкл Чимино / Michael Cimino
В ролях: Крис Кристофферсон, Кристофер Уокен, Джон Хёрт, Сэм Уотерстон, Брэд Дуриф, Изабель Юппер, Джозеф Коттен, Джефф Бриджес, Ронни Хоукинс, Пол Косло, Джеффри Льюис, Ричард Мейсер, Рози Вела, Мэри Кэтрин Райт, Николас Вудесон, Стефан Шчербый, Вальдемар Калиновски, Терри О’Куинн, Джек Конли, Маргарет Бенчак, Джим Нобелок, Эрика Петерсен, Робин Бартлетт, Том Нунан, Марат Юсим, Айварс Смитс, Джордана Рашович, Ярлат Конрой, Аллен Келлер, Кэролайн Кэва, Мади Каплан, Анна Левайн, Пэт Ходжес, Микки Рурк, Кевин МаКларнон, Кай Вулфф, Стивен Майсторович, Нортон Баффало, Джек Блессинг, Джерри Салливан, Джерри МакГи, Клеве Дапин, Стивен Брутон, Шон Хоппер, Дэвид Мэнсфилд, Ти-Боун Бёрнетт, Дэвид С. Касс ст., Пол Д’Амато, Питер Осуски, Иван Корманик, Майкл Кристенсен, Анатолий Давыдов, Нина Гайдарова, Уолии МакЛески, Гэри Везан, Х.П. Эветтс, Брюс Морган, Бобби Фабер, Джуди Тротт, Марк Чэпман, Стив Холбрук, Сэм Пекинпа, Лойд Кэтлетт, Уиллем Дефо, Джули Эриксон, Лес Гэпэй, Йен Хислоп, Аль Назарио Хантер, Линкольн Херст, Дэвид Льюис, Норберт Вайссер, Эрик Вуд
Роли озвучивали (НТВ+): Марина Иванова, Александр Набарин
Описание: В основе фильма — «война округа Джонсон», столкновение, произошедшее в Вайоминге в 1890 году - одна из позорнейших страниц в истории мирового жандарма. В округе Джонсон шериф Джеймс Эверилл пытается защитить интересы европейских иммигрантов-фермеров от посягательств богатых землевладельцев, которые нанимают Натана Чампиона, для устрашения поселенцев. Начинается вооружённый конфликт между наёмниками землевладельцев, посланными с согласия прездидента США, и фермерами, пытающимися построить новую жизнь на американской границе, который достигает апофеоза в жестоком сражении. И только регулярная армия сможет остановить кровопролитие.
Доп. информация: В скачанный с кинозала у пользователя Openpli релиз HDclub добавлена двухголоска из релиза - http://rutracker.org/forum/viewtopic.php?t=5445938 и субтитры на непереведенные места из релиза - http://rutracker.org/forum/viewtopic.php?t=4587067.
Вставки Юрия Сербина в многоголоску: 00:09:05-00:13:17, 00:33:46-00:35:21, 00:36:16-00:36:52, 00:37:33-00:37:35, 01:03:25-01:06:56, 01:15:35-01:18:03, 01:24:53-01:24:55, 01:26:42-01:28:28, 01:32:11-01:32:13, 01:32:34-01:32:47, 01:42:39-01:43:10, 01:50:25-01:52:27, 02:13:35-02:16:14, 02:36:11-02:39:57, 02:50:10-02:54:52. 03:00:39-03:05:03.
Сэмпл: https://cloud.mail.ru/public/4Lp9/tvgEgYxWp
Тип релиза: BDRemux 1080p
Контейнер: MKV
Видео: 24294 Кбит/сек, AVC 1920*1080 (16:9), 23,976 кадра/сек, CABAC
Аудио: Русский, 192 Кбит/сек, 48,0 КГц, 16 бит, 2 канала, AC-3 - 5 канал
Аудио 2: Русский, 192 Кбит/сек, 48,0 КГц, 16 бит, 2 канала, AC-3 - НТВ+
Аудио 3: Русский, DTS MA: 5.1 / 48,0 КГц / 3471 Кбит/сек / 24 бит / (DTS Core: 5.1 / 48,0 КГц / 1509 Кбит/сек / 24 бит) - Дольский
Аудио 4: Английский, DTS MA: 5.1 / 48,0 КГц / 3596 Кбит/сек / 24 бит / (DTS Core: 5.1 / 48,0 КГц / 1509 Кбит/сек / 24 бит)
Формат субтитров: softsub (SRT)

MediaInfo

Общее
Уникальный идентификатор : 98379144020856149197068153662213855024 (0x4A032249B6EE51CCC0029CD5E57A1730)
Полное имя : G:\MONAR\Художественные фильмы\Зарубежное кино\Врата Рая (1980) BDRemux 1080p.mkv
Формат : Matroska
Версия формата : Version 4
Размер файла : 48,0 Гбайт
Продолжительность : 3 ч. 37 м.
Режим общего битрейта : Переменный
Общий поток : 31,7 Мбит/сек
Название фильма : Heaven's gate (1980)
Дата кодирования : UTC 2018-09-23 16:52:18
Программа кодирования : mkvmerge v26.0.0 ('In The Game') 64-bit
Библиотека кодирования : libebml v1.3.6 + libmatroska v1.4.9
Видео
Идентификатор : 1
Формат : AVC
Формат/Информация : Advanced Video Codec
Профиль формата : High@L4.1
Настройки формата : CABAC / 4 Ref Frames
Параметр CABAC формата : Да
Параметр RefFrames формата : 4 кадра
Идентификатор кодека : V_MPEG4/ISO/AVC
Продолжительность : 3 ч. 37 м.
Вид битрейта : Переменный
Битрейт : 24,2 Мбит/сек
Максимальный битрейт : 37,0 Мбит/сек
Ширина : 1920 пикселей
Высота : 1080 пикселей
Соотношение сторон : 16:9
Режим частоты кадров : Постоянный
Частота кадров : 23,976 (24000/1001) кадра/сек
Цветовое пространство : YUV
Субдискретизация насыщенности : 4:2:0
Битовая глубина : 8 бит
Тип развёртки : Прогрессивная
Бит/(Пиксели*Кадры) : 0.487
Размер потока : 36,7 Гбайт (76%)
Язык : English
Default : Да
Forced : Нет
Аудио #1
Идентификатор : 2
Формат : AC-3
Формат/Информация : Audio Coding 3
Коммерческое название : Dolby Digital
Идентификатор кодека : A_AC3
Продолжительность : 3 ч. 37 м.
Вид битрейта : Постоянный
Битрейт : 192 Кбит/сек
Каналы : 2 канала
Channel layout : L R
Частота : 48,0 КГц
Частота кадров : 31,250 кадров/сек (1536 SPF)
Битовая глубина : 16 бит
Метод сжатия : С потерями
Размер потока : 298 Мбайт (1%)
Заголовок : MVO
Язык : Russian
ServiceKind/String : Complete Main
Default : Да
Forced : Нет
Аудио #2
Идентификатор : 3
Формат : AC-3
Формат/Информация : Audio Coding 3
Коммерческое название : Dolby Digital
Идентификатор кодека : A_AC3
Продолжительность : 3 ч. 37 м.
Вид битрейта : Постоянный
Битрейт : 192 Кбит/сек
Каналы : 2 канала
Channel layout : L R
Частота : 48,0 КГц
Частота кадров : 31,250 кадров/сек (1536 SPF)
Битовая глубина : 16 бит
Метод сжатия : С потерями
Размер потока : 298 Мбайт (1%)
Заголовок : DVO
Язык : Russian
ServiceKind/String : Complete Main
Default : Нет
Forced : Нет
Аудио #3
Идентификатор : 4
Формат : DTS XLL
Формат/Информация : Digital Theater Systems
Коммерческое название : DTS-HD Master Audio
Идентификатор кодека : A_DTS
Продолжительность : 3 ч. 37 м.
Вид битрейта : Переменный
Битрейт : 3471 Кбит/сек
Каналы : 6 каналов
Channel layout : C L R Ls Rs LFE
Частота : 48,0 КГц
Частота кадров : 93,750 кадра/сек (512 SPF)
Битовая глубина : 24 бит
Метод сжатия : Без потерь
Размер потока : 5,26 Гбайт (11%)
Заголовок : AVO
Язык : Russian
Default : Нет
Forced : Нет
Аудио #4
Идентификатор : 5
Формат : DTS XLL
Формат/Информация : Digital Theater Systems
Коммерческое название : DTS-HD Master Audio
Идентификатор кодека : A_DTS
Продолжительность : 3 ч. 37 м.
Вид битрейта : Переменный
Битрейт : 3596 Кбит/сек
Каналы : 6 каналов
Channel layout : C L R Ls Rs LFE
Частота : 48,0 КГц
Частота кадров : 93,750 кадра/сек (512 SPF)
Битовая глубина : 24 бит
Метод сжатия : Без потерь
Размер потока : 5,45 Гбайт (11%)
Заголовок : original
Язык : English
Default : Нет
Forced : Нет
Текст #1
Идентификатор : 6
Формат : UTF-8
Идентификатор кодека : S_TEXT/UTF8
Идентификатор кодека/Информация : UTF-8 Plain Text
Продолжительность : 3 ч. 13 м.
Битрейт : 5 бит/сек
ElementCount : 163
Размер потока : 8,26 Кбайт (0%)
Заголовок : srt
Язык : Russian
Default : Да
Forced : Нет
Текст #2
Идентификатор : 7
Формат : UTF-8
Идентификатор кодека : S_TEXT/UTF8
Идентификатор кодека/Информация : UTF-8 Plain Text
Продолжительность : 3 ч. 29 м.
Битрейт : 40 бит/сек
ElementCount : 1064
Размер потока : 61,8 Кбайт (0%)
Заголовок : srt
Язык : Russian
Default : Нет
Forced : Нет
Текст #3
Идентификатор : 8
Формат : UTF-8
Идентификатор кодека : S_TEXT/UTF8
Идентификатор кодека/Информация : UTF-8 Plain Text
Продолжительность : 3 ч. 26 м.
Битрейт : 25 бит/сек
ElementCount : 1295
Размер потока : 37,8 Кбайт (0%)
Заголовок : srt
Язык : English
Default : Нет
Forced : Нет
Меню
00:00:00.000 : en:Opening Credits
00:03:07.320 : en:Harrvard, 1870
00:06:03.496 : en:Imperative Duty
00:09:21.277 : en:According To Ability
00:13:48.377 : en:Spinning To Strauss
00:16:49.642 : en:Fists And Flowers
00:18:59.688 : en:"It's Over"
00:20:31.280 : en:Twenty Years Later
00:21:47.648 : en:Shadow Of Death
00:26:27.052 : en:"The Asshole Of Creation"
00:32:53.563 : en:Hired Guns
00:39:50.813 : en:The Association
00:44:18.456 : en:Reunited
00:51:37.436 : en:Price Of Land
00:54:02.080 : en:Canton's Plan
00:56:10.292 : en:"One Of Us"
00:57:35.502 : en:Cockfight
01:00:31.303 : en:War On A County
01:03:50.960 : en:Keeping The Peace
01:06:56.854 : en:The Best Pie
01:13:16.984 : en:Birthday Present
01:18:02.853 : en:Averill's Plea
01:23:31.640 : en:Heaven's Gate
01:28:48.081 : en:Dance For Two
01:32:47.028 : en:Champion's Warning
01:39:42.193 : en:Dropping Off Averill
01:42:19.141 : en:Proposal
01:46:56.377 : en:What Nate Wants
01:50:24.710 : en:Backbreaking Work
01:52:27.290 : en:Death List
01:55:36.980 : en:"Your Name's On It"
01:58:11.551 : en:Wallpaper
02:03:39.629 : en:Rifles On Rails
02:07:53.382 : en:No Escape
02:10:39.632 : en:Grab The Tongue
02:14:52.926 : en:The Names
02:20:57.374 : en:Intruders
02:27:47.784 : en:"We Are The Law"
02:31:18.161 : en:Walking Out
02:38:25.755 : en:Last Drink
02:39:57.429 : en:"I Just Quit"
02:44:17.231 : en:Up In Flames
02:50:17.048 : en:Holding Together
02:54:53.616 : en:"I Told You So"
02:59:04.033 : en:Charging In
03:00:37.877 : en:Ring Of Fire
03:07:02.845 : en:Last Words
03:10:44.525 : en:Roman Strategy
03:13:15.884 : en:Final Assault
03:20:15.762 : en:"It's The Rules"
03:23:06.891 : en:Sad Waltz
03:25:53.266 : en:Cruel Fate
03:28:51.736 : en:Adrift

Скриншоты

[cybertorrent.ru].t56042.torrent 
Торрент: Зарегистрирован [ 2018-09-25 15:35 ] · DBDA8A59B860624A1D0990EAB31EA26066F3BD01

Скачать .torrent

Скачать

60 KB

Статус: проверено
Скачан: 0 раз
Размер: 48,01 GB
terms.php
[Профиль] [ЛС]
Показать сообщения:    
Ответить на тему

Текущее время: 23-Фев 15:32

Часовой пояс: UTC + 3



Вы не можете начинать темы
Вы не можете отвечать на сообщения
Вы не можете редактировать свои сообщения
Вы не можете удалять свои сообщения
Вы не можете голосовать в опросах
Вы не можете прикреплять файлы к сообщениям
Вы можете скачивать файлы