Статистика раздачи
Размер:  172 MB   |    Зарегистрирован:  9 дней   |    Скачан:  0 раз

Полного источника не было: Никогда

 
   
 
 

Keeper ®

Пол:
Не указан
Стаж:
5 месяцев 2 дня
Сообщений:
495

Steven Charles Boone / Rockabye Baby! Lullaby Renditions of Madonna
-Жанр: Chillout, Lounge, Lullaby
Страна-производитель диска: USA
Год издания диска: 2011
Страна: USA-Аудиокодек: FLAC
Тип рипа: tracks+.cue
Битрейт аудио: lossless
Продолжительность: 00:46:42-Источник: скачано с Waffles
Наличие сканов в содержимом раздачи: нет-Треклист:
01. Lucky Star [00:03:25]
02. Material Girl [00:03:53]
03. Like a Virgin [00:03:54]
04. Ray of Light [00:04:44]
05. Express Yourself [00:03:45]
06. Vogue [00:03:24]
07. Papa Don't Preach [00:04:25]
08. Into the Groove [00:03:21]
09. Holiday [00:03:57]
10. Like a Prayer [00:04:00]
11. Borderline [00:04:19]
12. Crazy for You [00:03:29]-

Лог создания рипа

X Lossless Decoder version 20110821 (136.1)
XLD extraction logfile from 2011-12-01 17:08:22 -0700
Steven Charles Boone / Rockabye Baby! Lullaby Renditions of Madonna
Used drive : OPTIARC DVD RW AD-5970H (revision 3AP9)
Ripper mode : XLD Secure Ripper
Disable audio cache : OK for the drive with a cache less than 1375KiB
Make use of C2 pointers : NO
Read offset correction : 48
Max retry count : 20
Gap status : Analyzed, Appended (except HTOA)
TOC of the extracted CD
Track | Start | Length | Start sector | End sector
---------------------------------------------------------
1 | 00:00:00 | 03:25:24 | 0 | 15398
2 | 03:25:24 | 03:53:68 | 15399 | 32941
3 | 07:19:17 | 03:54:13 | 32942 | 50504
4 | 11:13:30 | 04:44:52 | 50505 | 71856
5 | 15:58:07 | 03:45:01 | 71857 | 88732
6 | 19:43:08 | 03:24:63 | 88733 | 104095
7 | 23:07:71 | 04:25:65 | 104096 | 124035
8 | 27:33:61 | 03:21:47 | 124036 | 139157
9 | 30:55:33 | 03:57:59 | 139158 | 156991
10 | 34:53:17 | 04:00:30 | 156992 | 175021
11 | 38:53:47 | 04:19:36 | 175022 | 194482
12 | 43:13:08 | 03:29:09 | 194483 | 210166
AccurateRip Summary
Disc not found in AccurateRip DB.
All Tracks
Album gain : -2.35 dB
Peak : 0.999969
Statistics
Read error : 0
Jitter error (maybe fixed) : 0
Retry sector count : 0
Damaged sector count : 0
Track 01
Filename : /Users/nelevanaerde/Music/What/Rip/Steven Charles Boone - Rockabye Baby! Lullaby Renditions of Madonna (2011) [FLAC]/01 Lucky Star.flac
Pre-gap length : 00:02:00
Track gain : -2.80 dB
Peak : 0.999969
CRC32 hash (test run) : CA88BD5B
CRC32 hash : CA88BD5B
CRC32 hash (skip zero) : 0549D193
AccurateRip signature : 93B0E4A0
->Track not present in AccurateRip database.
Statistics
Read error : 0
Jitter error (maybe fixed) : 0
Retry sector count : 0
Damaged sector count : 0
Track 02
Filename : /Users/nelevanaerde/Music/What/Rip/Steven Charles Boone - Rockabye Baby! Lullaby Renditions of Madonna (2011) [FLAC]/02 Material Girl.flac
Track gain : -0.32 dB
Peak : 0.919891
CRC32 hash (test run) : 8C27B637
CRC32 hash : 8C27B637
CRC32 hash (skip zero) : 126219AD
AccurateRip signature : 7EE9E309
->Track not present in AccurateRip database.
Statistics
Read error : 0
Jitter error (maybe fixed) : 0
Retry sector count : 0
Damaged sector count : 0
Track 03
Filename : /Users/nelevanaerde/Music/What/Rip/Steven Charles Boone - Rockabye Baby! Lullaby Renditions of Madonna (2011) [FLAC]/03 Like a Virgin.flac
Track gain : -3.76 dB
Peak : 0.829315
CRC32 hash (test run) : A2FD351C
CRC32 hash : A2FD351C
CRC32 hash (skip zero) : 43390E42
AccurateRip signature : 10747116
->Track not present in AccurateRip database.
Statistics
Read error : 0
Jitter error (maybe fixed) : 0
Retry sector count : 0
Damaged sector count : 0
Track 04
Filename : /Users/nelevanaerde/Music/What/Rip/Steven Charles Boone - Rockabye Baby! Lullaby Renditions of Madonna (2011) [FLAC]/04 Ray of Light.flac
Track gain : -2.53 dB
Peak : 0.788300
CRC32 hash (test run) : 9DFEB258
CRC32 hash : 9DFEB258
CRC32 hash (skip zero) : 450BB249
AccurateRip signature : A160F6CC
->Track not present in AccurateRip database.
Statistics
Read error : 0
Jitter error (maybe fixed) : 0
Retry sector count : 0
Damaged sector count : 0
Track 05
Filename : /Users/nelevanaerde/Music/What/Rip/Steven Charles Boone - Rockabye Baby! Lullaby Renditions of Madonna (2011) [FLAC]/05 Express Yourself.flac
Track gain : -2.29 dB
Peak : 0.853455
CRC32 hash (test run) : 52FBA6BB
CRC32 hash : 52FBA6BB
CRC32 hash (skip zero) : D81D1B5D
AccurateRip signature : 90610AA2
->Track not present in AccurateRip database.
Statistics
Read error : 0
Jitter error (maybe fixed) : 0
Retry sector count : 0
Damaged sector count : 0
Track 06
Filename : /Users/nelevanaerde/Music/What/Rip/Steven Charles Boone - Rockabye Baby! Lullaby Renditions of Madonna (2011) [FLAC]/06 Vogue.flac
Track gain : -0.80 dB
Peak : 0.794098
CRC32 hash (test run) : B2105C8C
CRC32 hash : B2105C8C
CRC32 hash (skip zero) : 7B62FCCB
AccurateRip signature : BB51A98E
->Track not present in AccurateRip database.
Statistics
Read error : 0
Jitter error (maybe fixed) : 0
Retry sector count : 0
Damaged sector count : 0
Track 07
Filename : /Users/nelevanaerde/Music/What/Rip/Steven Charles Boone - Rockabye Baby! Lullaby Renditions of Madonna (2011) [FLAC]/07 Papa Don't Preach.flac
Track gain : -2.02 dB
Peak : 0.862091
CRC32 hash (test run) : 10360BCD
CRC32 hash : 10360BCD
CRC32 hash (skip zero) : 47B05D44
AccurateRip signature : AB2A9228
->Track not present in AccurateRip database.
Statistics
Read error : 0
Jitter error (maybe fixed) : 0
Retry sector count : 0
Damaged sector count : 0
Track 08
Filename : /Users/nelevanaerde/Music/What/Rip/Steven Charles Boone - Rockabye Baby! Lullaby Renditions of Madonna (2011) [FLAC]/08 Into the Groove.flac
Track gain : -2.83 dB
Peak : 0.999969
CRC32 hash (test run) : E37E8369
CRC32 hash : E37E8369
CRC32 hash (skip zero) : 6B53C6F0
AccurateRip signature : 8C14FBD5
->Track not present in AccurateRip database.
Statistics
Read error : 0
Jitter error (maybe fixed) : 0
Retry sector count : 0
Damaged sector count : 0
Track 09
Filename : /Users/nelevanaerde/Music/What/Rip/Steven Charles Boone - Rockabye Baby! Lullaby Renditions of Madonna (2011) [FLAC]/09 Holiday.flac
Track gain : -2.63 dB
Peak : 0.999969
CRC32 hash (test run) : 00673CBA
CRC32 hash : 00673CBA
CRC32 hash (skip zero) : 0AC93DD4
AccurateRip signature : BF7A6BA5
->Track not present in AccurateRip database.
Statistics
Read error : 0
Jitter error (maybe fixed) : 0
Retry sector count : 0
Damaged sector count : 0
Track 10
Filename : /Users/nelevanaerde/Music/What/Rip/Steven Charles Boone - Rockabye Baby! Lullaby Renditions of Madonna (2011) [FLAC]/10 Like a Prayer.flac
Track gain : -3.11 dB
Peak : 0.772461
CRC32 hash (test run) : 674E78D2
CRC32 hash : 674E78D2
CRC32 hash (skip zero) : 2E04F65A
AccurateRip signature : FBB3595B
->Track not present in AccurateRip database.
Statistics
Read error : 0
Jitter error (maybe fixed) : 0
Retry sector count : 0
Damaged sector count : 0
Track 11
Filename : /Users/nelevanaerde/Music/What/Rip/Steven Charles Boone - Rockabye Baby! Lullaby Renditions of Madonna (2011) [FLAC]/11 Borderline.flac
Track gain : -0.47 dB
Peak : 0.857819
CRC32 hash (test run) : 4FE1F786
CRC32 hash : 4FE1F786
CRC32 hash (skip zero) : C76B8120
AccurateRip signature : 5B307536
->Track not present in AccurateRip database.
Statistics
Read error : 0
Jitter error (maybe fixed) : 0
Retry sector count : 0
Damaged sector count : 0
Track 12
Filename : /Users/nelevanaerde/Music/What/Rip/Steven Charles Boone - Rockabye Baby! Lullaby Renditions of Madonna (2011) [FLAC]/12 Crazy for You.flac
Track gain : -1.91 dB
Peak : 0.787720
CRC32 hash (test run) : 3469E40D
CRC32 hash : 3469E40D
CRC32 hash (skip zero) : 026B4E5C
AccurateRip signature : 6E667E77
->Track not present in AccurateRip database.
Statistics
Read error : 0
Jitter error (maybe fixed) : 0
Retry sector count : 0
Damaged sector count : 0
No errors occurred
End of status report
-

Содержание индексной карты (.CUE)

TITLE "Rockabye Baby! Lullaby Renditions of Madonna"
PERFORMER "Steven Charles Boone"
CATALOG 0027297967922
REM GENRE "Children's"
REM DATE "2011"
REM DISCNUMBER 1
REM TOTALDISCS 1
REM DISCID B10AF20C
REM REPLAYGAIN_ALBUM_GAIN -2.35 dB
REM REPLAYGAIN_ALBUM_PEAK 0.999969
FILE "01 Lucky Star.flac" WAVE
TRACK 01 AUDIO
TITLE "Lucky Star"
REM REPLAYGAIN_TRACK_GAIN -2.80 dB
REM REPLAYGAIN_TRACK_PEAK 0.999969
INDEX 01 00:00:00
FILE "02 Material Girl.flac" WAVE
TRACK 02 AUDIO
TITLE "Material Girl"
REM REPLAYGAIN_TRACK_GAIN -0.32 dB
REM REPLAYGAIN_TRACK_PEAK 0.919891
INDEX 01 00:00:00
FILE "03 Like a Virgin.flac" WAVE
TRACK 03 AUDIO
TITLE "Like a Virgin"
REM REPLAYGAIN_TRACK_GAIN -3.76 dB
REM REPLAYGAIN_TRACK_PEAK 0.829315
INDEX 01 00:00:00
FILE "04 Ray of Light.flac" WAVE
TRACK 04 AUDIO
TITLE "Ray of Light"
REM REPLAYGAIN_TRACK_GAIN -2.53 dB
REM REPLAYGAIN_TRACK_PEAK 0.788300
INDEX 01 00:00:00
FILE "05 Express Yourself.flac" WAVE
TRACK 05 AUDIO
TITLE "Express Yourself"
REM REPLAYGAIN_TRACK_GAIN -2.29 dB
REM REPLAYGAIN_TRACK_PEAK 0.853455
INDEX 01 00:00:00
FILE "06 Vogue.flac" WAVE
TRACK 06 AUDIO
TITLE "Vogue"
REM REPLAYGAIN_TRACK_GAIN -0.80 dB
REM REPLAYGAIN_TRACK_PEAK 0.794098
INDEX 01 00:00:00
FILE "07 Papa Don't Preach.flac" WAVE
TRACK 07 AUDIO
TITLE "Papa Don't Preach"
REM REPLAYGAIN_TRACK_GAIN -2.02 dB
REM REPLAYGAIN_TRACK_PEAK 0.862091
INDEX 01 00:00:00
FILE "08 Into the Groove.flac" WAVE
TRACK 08 AUDIO
TITLE "Into the Groove"
REM REPLAYGAIN_TRACK_GAIN -2.83 dB
REM REPLAYGAIN_TRACK_PEAK 0.999969
INDEX 01 00:00:00
FILE "09 Holiday.flac" WAVE
TRACK 09 AUDIO
TITLE "Holiday"
REM REPLAYGAIN_TRACK_GAIN -2.63 dB
REM REPLAYGAIN_TRACK_PEAK 0.999969
INDEX 01 00:00:00
FILE "10 Like a Prayer.flac" WAVE
TRACK 10 AUDIO
TITLE "Like a Prayer"
REM REPLAYGAIN_TRACK_GAIN -3.11 dB
REM REPLAYGAIN_TRACK_PEAK 0.772461
INDEX 01 00:00:00
FILE "11 Borderline.flac" WAVE
TRACK 11 AUDIO
TITLE "Borderline"
REM REPLAYGAIN_TRACK_GAIN -0.47 dB
REM REPLAYGAIN_TRACK_PEAK 0.857819
INDEX 01 00:00:00
FILE "12 Crazy for You.flac" WAVE
TRACK 12 AUDIO
TITLE "Crazy for You"
REM REPLAYGAIN_TRACK_GAIN -1.91 dB
REM REPLAYGAIN_TRACK_PEAK 0.787720
INDEX 01 00:00:00
-
[cybertorrent.ru].t56059.torrent 
Торрент: Зарегистрирован [ 2018-07-08 17:53 ] · 7E1EAE23A759D70DC71EDF9EB4677A50F79CA86A

Скачать .torrent

Скачать

15 KB

Статус: проверено
Скачан: 0 раз
Размер: 172 MB
Профиль [ЛС]
Показать сообщения:    

Текущее время: 18-Июл 04:50

Часовой пояс: UTC ± 0



Вы не можете начинать темы
Вы не можете отвечать на сообщения
Вы не можете редактировать свои сообщения
Вы не можете удалять свои сообщения
Вы не можете голосовать в опросах
Вы не можете прикреплять файлы к сообщениям
Вы можете скачивать файлы