BitTorrent клиенты



Снегопад / Snowfall / Сезон: 2 / Серии: 1-9 из 10 (Джон Синглтон, Дэниэл Эттиэс, Майкл Леманн) [2018, США, Драма, криминал, WEB-DLRip] MVO (NewStudio) + Original

Ответить на тему
Статистика раздачи
Размер:  4,83 GB   |    Зарегистрирован:  4 месяца 26 дней   |    Скачан:  0 раз

Полного источника не было: Никогда

 
   
 
 
Автор Сообщение

Domino ®

Пол: Не указан

Стаж: 1 год

Сообщений: 717

Создавать темы 25-Сен-2018 15:33

[Цитировать]

Снегопад / Snowfall- Год выпуска: 2018
Страна: США
Жанр: Драма, криминал
Продолжительность: ~ 00:55:00-Перевод: Профессиональный (многоголосый закадровый) | NewStudio-Режиссёр: Джон Синглтон, Дэниэл Эттиэс, Майкл Леманн-В ролях: Серхио Перис-Менчета, Эймин Джозеф, Айзиа Джон, Клаудия Абрего, Рой Авигдори, Лиана Легаспи, Адам Карст, Бернардо Бадилло, Ник Бишоп, Маркис Мур и др.-Описание: Сериал о начале кокаиновой эпидемии в Лос-Анджелесе начала 1980-х, когда на улицах Америки появился дешёвый крэк из Доминиканы, и страну захлестнул неконтролируемый рост преступности. События увидены глазами трёх главных героев: уличного торговца Джерома, гангстера Густаво и Леона, парня из благопристойного семейства.
Сэмпл: http://sendfile.su/1442042
Качество: WEB-DLRip
Формат: AVI
Видео: XviD, 720x400, 23,976 fps, ~1500 kbps
Аудио Rus: MP3, 48 kHz, 2 ch, 128 kbps | NewStudio
Аудио Eng: MP3, 48 kHz, 2 ch, 128 kbps
Субтитры: Русские (Форсированные)
Реклама: Отсутствует-

Список серий

01. Sightlines / Перспективы
02. The Day / Важный день
03. Prometheus Rising / Восхождение Прометея
04. Jingle Bell Rock / Рождественский звон
05. Serpiente / Змий
06. The Offer / Предложение
07. The World is Yours / Мир у твоих ног
08. Surrender / Капитуляция
09. Aftermath / Последствия
-

MediaInfo

Общее
Полное имя : E:\Снегопад (сезон 2) Snowfall (2018) WEB-DLRip - NewStudio\Snowfall.S02E01.WEB-DLRip.Rus.Eng.DV.NewStudio.avi
Формат : AVI
Формат/Информация : Audio Video Interleave
Размер файла : 581 Мбайт
Продолжительность : 46 м. 30 с.
Общий поток : 1748 Кбит/сек
Название фильма : Snowfall.S02E01.WEB-DLRip.Rus.Eng.DV.NewStudio / NNM-Club
Программа кодирования : VirtualDubModRus 1.5.10.2 (build 2542/release)
Библиотека кодирования : VirtualDubMod build 2542/release
Видео
Идентификатор : 0
Формат : MPEG-4 Visual
Профиль формата : Advanced Simple@L5
Настройки формата : BVOP2
Параметр BVOP формата : 2
Параметр QPel формата : Нет
Параметр GMC формата : Без точки перехода
Параметр матрицы формата : Default (H.263)
Идентификатор кодека : XVID
Идентификатор кодека/Подсказка : XviD
Продолжительность : 46 м. 30 с.
Битрейт : 1478 Кбит/сек
Ширина : 720 пикселей
Высота : 400 пикселей
Соотношение сторон : 16:9
Частота кадров : 23,976 (24000/1001) кадра/сек
Цветовое пространство : YUV
Субдискретизация насыщенности : 4:2:0
Битовая глубина : 8 бит
Тип развёртки : Прогрессивная
Метод сжатия : С потерями
Бит/(Пиксели*Кадры) : 0.214
Размер потока : 492 Мбайт (85%)
Заголовок : Rip by DriverV / NNM-Club
Библиотека кодирования : XviD 67
Аудио #1
Идентификатор : 1
Формат : MPEG Audio
Версия формата : Version 1
Профиль формата : Layer 3
Настройки формата : Joint stereo / MS Stereo
Идентификатор кодека : 55
Идентификатор кодека/Подсказка : MP3
Продолжительность : 46 м. 30 с.
Вид битрейта : Постоянный
Битрейт : 128 Кбит/сек
Каналы : 2 канала
Частота : 48,0 КГц
Метод сжатия : С потерями
Размер потока : 42,6 Мбайт (7%)
Выравнивание : Соединение по промежуткам
Продолжительность промежутка : 42 мс. (1,00 видеокадр)
Время предзагрузки промежутка : 504 мс.
Аудио #2
Идентификатор : 2
Формат : MPEG Audio
Версия формата : Version 1
Профиль формата : Layer 3
Настройки формата : Joint stereo / MS Stereo
Идентификатор кодека : 55
Идентификатор кодека/Подсказка : MP3
Продолжительность : 46 м. 30 с.
Вид битрейта : Постоянный
Битрейт : 128 Кбит/сек
Каналы : 2 канала
Частота : 48,0 КГц
Метод сжатия : С потерями
Размер потока : 42,6 Мбайт (7%)
Выравнивание : Соединение по промежуткам
Продолжительность промежутка : 42 мс. (1,00 видеокадр)
Время предзагрузки промежутка : 504 мс.
-

Скриншоты

Предыдущие и альтернативные раздачи
[cybertorrent.ru].t56066.torrent 
Торрент: Зарегистрирован [ 2018-09-25 15:35 ] · CE5BD5A73032811D2B4720FDE72771A710CC2209

Скачать .torrent

Скачать

14 KB

Статус: проверено
Скачан: 0 раз
Размер: 4,83 GB
terms.php
[Профиль] [ЛС]
Показать сообщения:    
Ответить на тему

Текущее время: 22-Фев 02:37

Часовой пояс: UTC + 3



Вы не можете начинать темы
Вы не можете отвечать на сообщения
Вы не можете редактировать свои сообщения
Вы не можете удалять свои сообщения
Вы не можете голосовать в опросах
Вы не можете прикреплять файлы к сообщениям
Вы можете скачивать файлы