Статистика раздачи
Размер:  636 MB   |    Зарегистрирован:  6 дней   |    Скачан:  0 раз

Полного источника не было: Никогда

 
   
 
 

Keeper ®

Пол:
Не указан
Стаж:
5 месяцев 2 дня
Сообщений:
495

Валерий Панков / Хиты из мультиков 1, 2
Жанр: Детская музыка
Аудиокодек: FLAC
Тип рипа: tracks+.cue
Битрейт аудио: lossless
Источник: собственный рип
Наличие сканов в содержимом раздачи: нет

1997 - Хиты из мультиков

Валерий Панков / Хиты из мультиков
Страна-производитель диска: Швеция
Год издания диска: 1997
Издатель (лейбл): Союз
Номер по каталогу: SZCD 0879-97
Продолжительность: 00:39:12
Треклист:
01. Их знают все (0:34)
02. Хиты из мультиков. Сказки (2:51)
03. Утиные истории (3:14)
04. Чип и Дейл (3:57)
05. Чудеса на виражах (2:31)
06. Мишки Гамми (2:41)
07. Каспер (2:13)
08. О наших мультиках (2:44)
09. Сказки (караоке) (2:44)
10. Мишки Гамми (караоке) (2:24)
11. Утиные истории (караоке) (2:45)
12. Чип и Дейл (караоке) (3:38)
13. Чудеса на виражах (караоке) (2:16)
14. Каспер (караоке) (1:57)
15. О наших мультиках (караоке) (2:42)

Лог создания рипа

Exact Audio Copy V1.1 from 23. June 2015
EAC extraction logfile from 17. August 2015, 20:35
Валерий Панков / Хиты из мультиков
Used drive : Optiarc DVD RW AD-7200A Adapter: 1 ID: 0
Read mode : Secure
Utilize accurate stream : Yes
Defeat audio cache : Yes
Make use of C2 pointers : No
Read offset correction : 48
Overread into Lead-In and Lead-Out : No
Fill up missing offset samples with silence : Yes
Delete leading and trailing silent blocks : No
Null samples used in CRC calculations : Yes
Used interface : Native Win32 interface for Win NT & 2000
Gap handling : Appended to previous track
Used output format : User Defined Encoder
Selected bitrate : 1024 kBit/s
Quality : High
Add ID3 tag : No
Command line compressor : C:\Program Files\FLAC\flac.exe
Additional command line options : -V -8 -T "Genre=%genre%" -T "Artist=%artist%" -T "Title=%title%" -T "Album=%albumtitle%" -T "Date=%year%" -T "Tracknumber=%tracknr%" -T "Comment=%comment%" %source%
TOC of the extracted CD
Track | Start | Length | Start sector | End sector
---------------------------------------------------------
1 | 0:00.00 | 0:33.42 | 0 | 2516
2 | 0:33.42 | 2:50.43 | 2517 | 15309
3 | 3:24.10 | 3:14.07 | 15310 | 29866
4 | 6:38.17 | 3:56.68 | 29867 | 47634
5 | 10:35.10 | 2:31.27 | 47635 | 58986
6 | 13:06.37 | 2:41.00 | 58987 | 71061
7 | 15:47.37 | 2:12.55 | 71062 | 81016
8 | 18:00.17 | 2:43.53 | 81017 | 93294
9 | 20:43.70 | 2:44.30 | 93295 | 105624
10 | 23:28.25 | 2:24.10 | 105625 | 116434
11 | 25:52.35 | 2:44.65 | 116435 | 128799
12 | 28:37.25 | 3:38.37 | 128800 | 145186
13 | 32:15.62 | 2:16.33 | 145187 | 155419
14 | 34:32.20 | 1:56.72 | 155420 | 164191
15 | 36:29.17 | 2:42.33 | 164192 | 176374
Track 1
Filename D:\01. Их знают все.wav
Pre-gap length 0:00:02.00
Peak level 94.7 %
Extraction speed 0.7 X
Track quality 99.6 %
Test CRC FD02C074
Copy CRC FD02C074
Track not present in AccurateRip database
Copy OK
Track 2
Filename D:\02. Хиты из мультиков. Сказки.wav
Pre-gap length 0:00:02.58
Peak level 97.1 %
Extraction speed 2.1 X
Track quality 100.0 %
Test CRC F61C53EA
Copy CRC F61C53EA
Track not present in AccurateRip database
Copy OK
Track 3
Filename D:\03. Утиные истории.wav
Pre-gap length 0:00:02.58
Peak level 100.0 %
Extraction speed 2.0 X
Track quality 99.9 %
Test CRC E736CDE8
Copy CRC E736CDE8
Track not present in AccurateRip database
Copy OK
Track 4
Filename D:\04. Чип и Дейл.wav
Pre-gap length 0:00:02.58
Peak level 94.6 %
Extraction speed 2.6 X
Track quality 100.0 %
Test CRC 4FD97253
Copy CRC 4FD97253
Track not present in AccurateRip database
Copy OK
Track 5
Filename D:\05. Чудеса на виражах.wav
Pre-gap length 0:00:02.58
Peak level 100.0 %
Extraction speed 2.2 X
Track quality 99.9 %
Test CRC 921B44FE
Copy CRC 921B44FE
Track not present in AccurateRip database
Copy OK
Track 6
Filename D:\06. Мишки Гамми.wav
Pre-gap length 0:00:02.58
Peak level 93.4 %
Extraction speed 2.3 X
Track quality 99.9 %
Test CRC 6D08E9AF
Copy CRC 6D08E9AF
Track not present in AccurateRip database
Copy OK
Track 7
Filename D:\07. Каспер.wav
Pre-gap length 0:00:02.58
Peak level 97.4 %
Extraction speed 2.7 X
Track quality 100.0 %
Test CRC 44FADCBD
Copy CRC 44FADCBD
Track not present in AccurateRip database
Copy OK
Track 8
Filename D:\08. О наших мультиках.wav
Pre-gap length 0:00:02.58
Peak level 96.4 %
Extraction speed 3.0 X
Track quality 100.0 %
Test CRC 08AAFF06
Copy CRC 08AAFF06
Track not present in AccurateRip database
Copy OK
Track 9
Filename D:\09. Сказки (караоке).wav
Pre-gap length 0:00:02.56
Peak level 100.0 %
Extraction speed 3.1 X
Track quality 100.0 %
Test CRC 7C3AF7B2
Copy CRC 7C3AF7B2
Track not present in AccurateRip database
Copy OK
Track 10
Filename D:\10. Мишки Гамми (караоке).wav
Pre-gap length 0:00:02.58
Peak level 99.3 %
Extraction speed 1.8 X
Track quality 99.8 %
Test CRC 25A8407C
Copy CRC 25A8407C
Track not present in AccurateRip database
Copy OK
Track 11
Filename D:\11. Утиные истории (караоке).wav
Pre-gap length 0:00:02.56
Peak level 100.0 %
Extraction speed 3.3 X
Track quality 100.0 %
Test CRC AE406802
Copy CRC AE406802
Track not present in AccurateRip database
Copy OK
Track 12
Filename D:\12. Чип и Дейл (караоке).wav
Pre-gap length 0:00:02.58
Peak level 100.0 %
Extraction speed 3.6 X
Track quality 100.0 %
Test CRC 9ED2B26E
Copy CRC 9ED2B26E
Track not present in AccurateRip database
Copy OK
Track 13
Filename D:\13. Чудеса на виражах (караоке).wav
Pre-gap length 0:00:02.58
Peak level 100.0 %
Extraction speed 2.8 X
Track quality 99.9 %
Test CRC 383931B4
Copy CRC 383931B4
Track not present in AccurateRip database
Copy OK
Track 14
Filename D:\14. Каспер (караоке).wav
Pre-gap length 0:00:02.58
Peak level 95.6 %
Extraction speed 3.4 X
Track quality 100.0 %
Test CRC 1023B02F
Copy CRC 1023B02F
Track not present in AccurateRip database
Copy OK
Track 15
Filename D:\15. О наших мультиках (караоке).wav
Pre-gap length 0:00:02.58
Peak level 97.6 %
Extraction speed 3.7 X
Track quality 100.0 %
Test CRC BEB1ACB5
Copy CRC BEB1ACB5
Track not present in AccurateRip database
Copy OK
None of the tracks are present in the AccurateRip database
No errors occurred
End of status report
---- CUETools DB Plugin V2.1.6
[CTDB TOCID: V57X8oflstur1bzxFDitMVNEuqA-] found
Submit result: already submitted
Track | CTDB Status
1 | (1/1) Accurately ripped
2 | (1/1) Accurately ripped
3 | (1/1) Accurately ripped
4 | (1/1) Accurately ripped
5 | (1/1) Accurately ripped
6 | (1/1) Accurately ripped
7 | (1/1) Accurately ripped
8 | (1/1) Accurately ripped
9 | (1/1) Accurately ripped
10 | (1/1) Accurately ripped
11 | (1/1) Accurately ripped
12 | (1/1) Accurately ripped
13 | (1/1) Accurately ripped
14 | (1/1) Accurately ripped
15 | (1/1) Accurately ripped
==== Log checksum 08E885F560587F33FED458BD1C6B43ECAB3B6F96822F03E0EFBAC5B6C505CF50 ====

Содержание индексной карты (.CUE)

REM GENRE Soundtrack
REM DATE 1997
REM DISCID BF092F0F
REM COMMENT "ExactAudioCopy v1.1"
PERFORMER "Валерий Панков"
TITLE "Хиты из мультиков"
FILE "01. Их знают все.wav" WAVE
TRACK 01 AUDIO
TITLE "Их знают все"
PERFORMER "Валерий Панков"
INDEX 01 00:00:00
TRACK 02 AUDIO
TITLE "Хиты из мультиков. Сказки"
PERFORMER "Валерий Панков"
INDEX 00 00:30:59
FILE "02. Хиты из мультиков. Сказки.wav" WAVE
INDEX 01 00:00:00
TRACK 03 AUDIO
TITLE "Утиные истории"
PERFORMER "Валерий Панков"
INDEX 00 02:47:60
FILE "03. Утиные истории.wav" WAVE
INDEX 01 00:00:00
TRACK 04 AUDIO
TITLE "Чип и Дейл"
PERFORMER "Валерий Панков"
INDEX 00 03:11:24
FILE "04. Чип и Дейл.wav" WAVE
INDEX 01 00:00:00
TRACK 05 AUDIO
TITLE "Чудеса на виражах"
PERFORMER "Валерий Панков"
INDEX 00 03:54:10
FILE "05. Чудеса на виражах.wav" WAVE
INDEX 01 00:00:00
TRACK 06 AUDIO
TITLE "Мишки Гамми"
PERFORMER "Валерий Панков"
INDEX 00 02:28:44
FILE "06. Мишки Гамми.wav" WAVE
INDEX 01 00:00:00
TRACK 07 AUDIO
TITLE "Каспер"
PERFORMER "Валерий Панков"
INDEX 00 02:38:17
FILE "07. Каспер.wav" WAVE
INDEX 01 00:00:00
TRACK 08 AUDIO
TITLE "О наших мультиках"
PERFORMER "Валерий Панков"
INDEX 00 02:09:72
FILE "08. О наших мультиках.wav" WAVE
INDEX 01 00:00:00
TRACK 09 AUDIO
TITLE "Сказки (караоке)"
PERFORMER "Валерий Панков"
INDEX 00 02:40:72
FILE "09. Сказки (караоке).wav" WAVE
INDEX 01 00:00:00
TRACK 10 AUDIO
TITLE "Мишки Гамми (караоке)"
PERFORMER "Валерий Панков"
INDEX 00 02:41:47
FILE "10. Мишки Гамми (караоке).wav" WAVE
INDEX 01 00:00:00
TRACK 11 AUDIO
TITLE "Утиные истории (караоке)"
PERFORMER "Валерий Панков"
INDEX 00 02:21:29
FILE "11. Утиные истории (караоке).wav" WAVE
INDEX 01 00:00:00
TRACK 12 AUDIO
TITLE "Чип и Дейл (караоке)"
PERFORMER "Валерий Панков"
INDEX 00 02:42:07
FILE "12. Чип и Дейл (караоке).wav" WAVE
INDEX 01 00:00:00
TRACK 13 AUDIO
TITLE "Чудеса на виражах (караоке)"
PERFORMER "Валерий Панков"
INDEX 00 03:35:54
FILE "13. Чудеса на виражах (караоке).wav" WAVE
INDEX 01 00:00:00
TRACK 14 AUDIO
TITLE "Каспер (караоке)"
PERFORMER "Валерий Панков"
INDEX 00 02:13:50
FILE "14. Каспер (караоке).wav" WAVE
INDEX 01 00:00:00
TRACK 15 AUDIO
TITLE "О наших мультиках (караоке)"
PERFORMER "Валерий Панков"
INDEX 00 01:54:14
FILE "15. О наших мультиках (караоке).wav" WAVE
INDEX 01 00:00:00

Дополнительная информация

Первопресс 1997 года, выпущенный студией "Союз". От издания "ТВИК-Лирек" 2003 года отличается полиграфией и порядком треков.

1999 - Хиты из мультиков 2

Валерий Панков / Хиты из мультиков 2
Страна-производитель диска: Россия
Год издания диска: 1999
Издатель (лейбл): ТВИК-Лирек
Номер по каталогу: TW9907CD
Продолжительность: 00:57:04
Треклист:
01. Круг жизни (4:47)
02. А под водой (3:10)
03. Волшебный мир (2:41)
04. Вот бы стать скорей королем (3:29)
05. Девушка и Зверь (3:59)
06. О чем мечтаешь в час ночной (3:56)
07. Попурри (Мишки Гамми - Чудеса на виражах - Каспер и друзья - Чип и Дейл - Утиные истории) (6:27)
08. Круг жизни (караоке) (4:49)
09. А под водой (караоке) (3:11)
10. Волшебный мир (караоке) (2:40)
11. Вот бы стать скорей королем (караоке) (3:30)
12. Девушка и Зверь (караоке) (3:59)
13. О чем мечтаешь в час ночной (караоке) (3:56)
14. Попурри (караоке) (6:27)

Лог создания рипа

Exact Audio Copy V1.1 from 23. June 2015
EAC extraction logfile from 17. August 2015, 21:20
Валерий Панков / Хиты из мультиков 2
Used drive : Optiarc DVD RW AD-7200A Adapter: 1 ID: 0
Read mode : Secure
Utilize accurate stream : Yes
Defeat audio cache : Yes
Make use of C2 pointers : No
Read offset correction : 48
Overread into Lead-In and Lead-Out : No
Fill up missing offset samples with silence : Yes
Delete leading and trailing silent blocks : No
Null samples used in CRC calculations : Yes
Used interface : Native Win32 interface for Win NT & 2000
Gap handling : Appended to previous track
Used output format : User Defined Encoder
Selected bitrate : 1024 kBit/s
Quality : High
Add ID3 tag : No
Command line compressor : C:\Program Files\FLAC\flac.exe
Additional command line options : -V -8 -T "Genre=%genre%" -T "Artist=%artist%" -T "Title=%title%" -T "Album=%albumtitle%" -T "Date=%year%" -T "Tracknumber=%tracknr%" -T "Comment=%comment%" %source%
TOC of the extracted CD
Track | Start | Length | Start sector | End sector
---------------------------------------------------------
1 | 0:00.00 | 4:47.37 | 0 | 21561
2 | 4:47.37 | 3:09.69 | 21562 | 35805
3 | 7:57.31 | 2:41.30 | 35806 | 47910
4 | 10:38.61 | 3:29.23 | 47911 | 63608
5 | 14:08.09 | 3:59.26 | 63609 | 81559
6 | 18:07.35 | 3:56.26 | 81560 | 99285
7 | 22:03.61 | 6:27.06 | 99286 | 128316
8 | 28:30.67 | 4:49.24 | 128317 | 150015
9 | 33:20.16 | 3:11.13 | 150016 | 164353
10 | 36:31.29 | 2:40.02 | 164354 | 176355
11 | 39:11.31 | 3:30.10 | 176356 | 192115
12 | 42:41.41 | 3:58.63 | 192116 | 210028
13 | 46:40.29 | 3:56.23 | 210029 | 227751
14 | 50:36.52 | 6:27.33 | 227752 | 256809
Track 1
Filename D:\01. Круг жизни.wav
Pre-gap length 0:00:02.00
Peak level 100.0 %
Extraction speed 2.0 X
Track quality 99.9 %
Test CRC 7BCF8F38
Copy CRC 7BCF8F38
Cannot be verified as accurate (confidence 1) [8DE83837], AccurateRip returned [0BF73C24] (AR v2)
Copy OK
Track 2
Filename D:\02. А под водой.wav
Peak level 71.7 %
Extraction speed 2.1 X
Track quality 99.9 %
Test CRC BCB345CF
Copy CRC BCB345CF
Cannot be verified as accurate (confidence 1) [B8C9B821], AccurateRip returned [B0E75CB5] (AR v2)
Copy OK
Track 3
Filename D:\03. Волшебный мир.wav
Peak level 89.8 %
Extraction speed 2.5 X
Track quality 100.0 %
Test CRC C0043748
Copy CRC C0043748
Cannot be verified as accurate (confidence 1) [071D3939], AccurateRip returned [5F3FE4DD] (AR v2)
Copy OK
Track 4
Filename D:\04. Вот бы стать скорей королем.wav
Peak level 100.0 %
Extraction speed 2.7 X
Track quality 100.0 %
Test CRC BAE2CE5A
Copy CRC BAE2CE5A
Cannot be verified as accurate (confidence 1) [B67A5049], AccurateRip returned [1253596A] (AR v2)
Copy OK
Track 5
Filename D:\05. Девушка и Зверь.wav
Peak level 99.4 %
Extraction speed 2.6 X
Track quality 99.9 %
Test CRC 0D668C68
Copy CRC 0D668C68
Cannot be verified as accurate (confidence 1) [D4C3660C], AccurateRip returned [1D7555D0] (AR v2)
Copy OK
Track 6
Filename D:\06. О чем мечтаешь в час ночной.wav
Peak level 87.3 %
Extraction speed 2.8 X
Track quality 99.9 %
Test CRC 5232FB58
Copy CRC 5232FB58
Cannot be verified as accurate (confidence 1) [E946B8FB], AccurateRip returned [A380AB2A] (AR v2)
Copy OK
Track 7
Filename D:\07. Попурри (Мишки Гамми - Чудеса на виражах - Каспер и друзья - Чип и Дейл - Утиные истории).wav
Peak level 100.0 %
Extraction speed 3.3 X
Track quality 99.9 %
Test CRC 96584E91
Copy CRC 96584E91
Cannot be verified as accurate (confidence 1) [00A769E9], AccurateRip returned [4E653C91] (AR v2)
Copy OK
Track 8
Filename D:\08. Круг жизни (караоке).wav
Peak level 93.4 %
Extraction speed 3.7 X
Track quality 100.0 %
Test CRC 0B37AD79
Copy CRC 0B37AD79
Cannot be verified as accurate (confidence 1) [2CDA43AD], AccurateRip returned [45C8E17E] (AR v2)
Copy OK
Track 9
Filename D:\09. А под водой (караоке).wav
Peak level 100.0 %
Extraction speed 3.6 X
Track quality 100.0 %
Test CRC CC866A3B
Copy CRC CC866A3B
Cannot be verified as accurate (confidence 1) [8ADD8199], AccurateRip returned [3FF615B0] (AR v2)
Copy OK
Track 10
Filename D:\10. Волшебный мир (караоке).wav
Peak level 52.5 %
Extraction speed 3.0 X
Track quality 99.9 %
Test CRC 8F45F359
Copy CRC 8F45F359
Cannot be verified as accurate (confidence 1) [4671DF65], AccurateRip returned [4A40B6BE] (AR v2)
Copy OK
Track 11
Filename D:\11. Вот бы стать скорей королем (караоке).wav
Peak level 95.8 %
Extraction speed 3.4 X
Track quality 99.9 %
Test CRC 05E76756
Copy CRC 05E76756
Cannot be verified as accurate (confidence 1) [F456BF3A], AccurateRip returned [7423798A] (AR v2)
Copy OK
Track 12
Filename D:\12. Девушка и Зверь (караоке).wav
Peak level 98.5 %
Extraction speed 4.1 X
Track quality 100.0 %
Test CRC BDD2CD33
Copy CRC BDD2CD33
Cannot be verified as accurate (confidence 1) [77711B4B], AccurateRip returned [64D00209] (AR v2)
Copy OK
Track 13
Filename D:\13. О чем мечтаешь в час ночной (караоке).wav
Peak level 95.5 %
Extraction speed 4.1 X
Track quality 100.0 %
Test CRC 2580C6FB
Copy CRC 2580C6FB
Cannot be verified as accurate (confidence 1) [7B30DF2F], AccurateRip returned [828E022A] (AR v2)
Copy OK
Track 14
Filename D:\14. Попурри (караоке).wav
Peak level 82.5 %
Extraction speed 3.9 X
Track quality 99.9 %
Test CRC 4F43B775
Copy CRC 4F43B775
Cannot be verified as accurate (confidence 1) [A5FD86CA], AccurateRip returned [7F23B737] (AR v2)
Copy OK
No tracks could be verified as accurate
You may have a different pressing from the one(s) in the database
No errors occurred
End of status report
---- CUETools DB Plugin V2.1.6
[CTDB TOCID: TUIot6nEdwjfKTv7tGKZUJEAfx4-] found
Submit result: already submitted
Track | CTDB Status
1 | (1/1) Accurately ripped
2 | (1/1) Accurately ripped
3 | (1/1) Accurately ripped
4 | (1/1) Accurately ripped
5 | (1/1) Accurately ripped
6 | (1/1) Accurately ripped
7 | (1/1) Accurately ripped
8 | (1/1) Accurately ripped
9 | (1/1) Accurately ripped
10 | (1/1) Accurately ripped
11 | (1/1) Accurately ripped
12 | (1/1) Accurately ripped
13 | (1/1) Accurately ripped
14 | (1/1) Accurately ripped
==== Log checksum BF0C8C85EE0C3AD079CDB15E9684DD9A5BF3681E208D6B08235D0237193634DF ====

Содержание индексной карты (.CUE)

REM GENRE Soundtrack
REM DATE 1999
REM DISCID B20D600E
REM COMMENT "ExactAudioCopy v1.1"
PERFORMER "Валерий Панков"
TITLE "Хиты из мультиков 2"
FILE "01. Круг жизни.wav" WAVE
TRACK 01 AUDIO
TITLE "Круг жизни"
PERFORMER "Валерий Панков"
INDEX 01 00:00:00
FILE "02. А под водой.wav" WAVE
TRACK 02 AUDIO
TITLE "А под водой"
PERFORMER "Валерий Панков"
INDEX 01 00:00:00
FILE "03. Волшебный мир.wav" WAVE
TRACK 03 AUDIO
TITLE "Волшебный мир"
PERFORMER "Валерий Панков"
INDEX 01 00:00:00
FILE "04. Вот бы стать скорей королем.wav" WAVE
TRACK 04 AUDIO
TITLE "Вот бы стать скорей королем"
PERFORMER "Валерий Панков"
INDEX 01 00:00:00
FILE "05. Девушка и Зверь.wav" WAVE
TRACK 05 AUDIO
TITLE "Девушка и Зверь"
PERFORMER "Валерий Панков"
INDEX 01 00:00:00
FILE "06. О чем мечтаешь в час ночной.wav" WAVE
TRACK 06 AUDIO
TITLE "О чем мечтаешь в час ночной"
PERFORMER "Валерий Панков"
INDEX 01 00:00:00
FILE "07. Попурри (Мишки Гамми - Чудеса на виражах - Каспер и друзья - Чип и Дейл - Утиные истории).wav" WAVE
TRACK 07 AUDIO
TITLE "Попурри (Мишки Гамми - Чудеса на виражах - Каспер и друзья - Чип и Дейл - Ути..."
PERFORMER "Валерий Панков"
INDEX 01 00:00:00
INDEX 02 01:21:32
INDEX 03 02:23:32
INDEX 04 03:28:68
INDEX 05 04:48:57
FILE "08. Круг жизни (караоке).wav" WAVE
TRACK 08 AUDIO
TITLE "Круг жизни (караоке)"
PERFORMER "Валерий Панков"
INDEX 01 00:00:00
FILE "09. А под водой (караоке).wav" WAVE
TRACK 09 AUDIO
TITLE "А под водой (караоке)"
PERFORMER "Валерий Панков"
INDEX 01 00:00:00
FILE "10. Волшебный мир (караоке).wav" WAVE
TRACK 10 AUDIO
TITLE "Волшебный мир (караоке)"
PERFORMER "Валерий Панков"
INDEX 01 00:00:00
FILE "11. Вот бы стать скорей королем (караоке).wav" WAVE
TRACK 11 AUDIO
TITLE "Вот бы стать скорей королем (караоке)"
PERFORMER "Валерий Панков"
INDEX 01 00:00:00
FILE "12. Девушка и Зверь (караоке).wav" WAVE
TRACK 12 AUDIO
TITLE "Девушка и Зверь (караоке)"
PERFORMER "Валерий Панков"
INDEX 01 00:00:00
FILE "13. О чем мечтаешь в час ночной (караоке).wav" WAVE
TRACK 13 AUDIO
TITLE "О чем мечтаешь в час ночной (караоке)"
PERFORMER "Валерий Панков"
INDEX 01 00:00:00
FILE "14. Попурри (караоке).wav" WAVE
TRACK 14 AUDIO
TITLE "Попурри (караоке)"
PERFORMER "Валерий Панков"
INDEX 01 00:00:00
INDEX 02 01:21:34
INDEX 03 02:23:34
INDEX 04 03:28:68
INDEX 05 04:48:53
[cybertorrent.ru].t56308.torrent 
Торрент: Зарегистрирован [ 2018-07-11 16:09 ] · 327AA023DE78BAF82B6119CE35F4DF7ED33CDB6F

Скачать .torrent

Скачать

17 KB

Статус: проверено
Скачан: 0 раз
Размер: 636 MB
Профиль [ЛС]
Показать сообщения:    

Текущее время: 18-Июл 04:50

Часовой пояс: UTC ± 0



Вы не можете начинать темы
Вы не можете отвечать на сообщения
Вы не можете редактировать свои сообщения
Вы не можете удалять свои сообщения
Вы не можете голосовать в опросах
Вы не можете прикреплять файлы к сообщениям
Вы можете скачивать файлы