BitTorrent клиенты



Гора бога людоедов / Бог людоедов / The Mountain of the Cannibal God / La montagna del dio cannibale (Серджио Мартино / Sergio Martino) [1978, Италия, Ужасы, приключения, BDRip] MVO + AVO (Евгений Гранкин) + Sub Eng + Original Eng

Ответить на тему
Статистика раздачи
Размер:  1,59 GB   |    Зарегистрирован:  4 месяца 24 дня   |    Скачан:  0 раз

Полного источника не было: Никогда

 
   
 
 
Автор Сообщение

GEEP ®

Пол: Не указан

Стаж: 1 год

Сообщений: 866

Создавать темы 28-Сен-2018 16:09

[Цитировать]

Гора бога людоедов (Бог людоедов) / The Mountain of the Cannibal God (La montagna del dio cannibale)
Страна: Италия
Жанр: Ужасы, приключения
Год выпуска: 1978
Продолжительность: 01:40:28
Перевод: Профессиональный (многоголосый закадровый)
Перевод 2: Авторский (одноголосый закадровый) Евгений Гранкин
Субтитры: английские
Оригинальная аудиодорожка: английский
Режиссер: Серджио Мартино / Sergio Martino
В ролях: Урсула Андресс, Стейси Кич, Клаудио Кассинелли, Антонио Марсина, Франко Фантазия, Ланфранко Спинола, Карло Лонги, Луиджина Рокки, Акушула Селайя, Дадли Ванагуру
Описание: Профессор думал, что людоеды племени Пуко вымерли. В 20-ти часах лета от Лондона находится дикий первобытный мир.Этнолог Стивенсон, отчаявшись получить разрешение на экспедицию в джунгли Марабата на Новой Гвинее, отправляется туда нелегально. Его цель — найти племя людоедов Пуко, которое многие ученые считают вымершим. Профессор исчез бесследно.Его жена Сьюзан и ее брат Артур пытаются найти ученого. Местные власти боятся проклятого места как огня. Отважным путешественникам придется полагаться лишь на удачу и профессионального знатока джунглей Эдварда Фостера.Ядовитые змеи и крокодилы, непроходимые болота и ямы-ловушки. Но самое страшное ожидает их у цели: что за тайна витает над «Горой Бога Людоедов» — таинственный Ра-Рами?

Сэмпл: https://yadi.sk/i/esTOZ1IrTsHsNQ
Качество видео: BDRip Исходник
Формат видео: AVI
Видео: 720x304 (2.37:1), 24.000 fps, XviD build 50 ~1671 kbps avg, 0.32 bit/pixel
Аудио: 48 kHz, AC3 Dolby Digital, 2/0 (L,R) ch, ~192 kbps Rus
Аудио 2: 48 kHz, AC3 Dolby Digital, 2/0 (L,R) ch, ~192 kbps Rus
Отдельно:
Аудио 3: 48 kHz, AC3 Dolby Digital, 2/0 (L,R) ch, ~192 kbps Eng
Формат субтитров: softsub (SRT)

MediaInfo

Общее
Полное имя : D:\ La montagna del dio cannibale (1978) BDRip (2xRus).avi
Формат : AVI
Формат/Информация : Audio Video Interleave
Размер файла : 1,45 Гбайт
Продолжительность : 1 ч. 40 м.
Общий поток : 2071 Кбит/сек
Название фильма : La montagna del dio cannibale (1978) BDRip (2xRus)
Режиссёр : Maksmet
Программа кодирования : VirtualDubModRus 1.5.10.2 (build 2542/release)
Формат оригинала/Имя : Movie
Примечание : 11.09.2018
Видео
Идентификатор : 0
Формат : MPEG-4 Visual
Профиль формата : Advanced Simple@L5
Параметр BVOP формата : 1
Параметр QPel формата : Нет
Параметр GMC формата : Без точки перехода
Параметр матрицы формата : Выборочная
Идентификатор кодека : XVID
Идентификатор кодека/Подсказка : XviD
Продолжительность : 1 ч. 40 м.
Битрейт : 1673 Кбит/сек
Ширина : 720 пикселей
Высота : 304 пикселя
Соотношение сторон : 2,35:1
Частота кадров : 24,000 кадра/сек
Цветовое пространство : YUV
Субдискретизация насыщенности : 4:2:0
Битовая глубина : 8 бит
Тип развёртки : Прогрессивная
Метод сжатия : С потерями
Бит/(Пиксели*Кадры) : 0.318
Размер потока : 1,17 Гбайт (81%)
Библиотека кодирования : XviD 1.2.1 (UTC 2008-12-04)
Аудио #1
Идентификатор : 1
Формат : AC-3
Формат/Информация : Audio Coding 3
Параметр Endianness формата : Big
Идентификатор кодека : 2000
Продолжительность : 1 ч. 40 м.
Вид битрейта : Постоянный
Битрейт : 192 Кбит/сек
Каналы : 2 канала
Расположение каналов : Front: L R
Частота : 48,0 КГц
Частота кадров : 31,250 кадров/сек (1536 SPF)
Битовая глубина : 16 бит
Метод сжатия : С потерями
Размер потока : 138 Мбайт (9%)
Выравнивание : Разделение по промежуткам
Продолжительность промежутка : 42 мс. (1,00 видеокадр)
Время предзагрузки промежутка : 500 мс.
ServiceKind/String : Complete Main
Аудио #2
Идентификатор : 2
Формат : AC-3
Формат/Информация : Audio Coding 3
Параметр Endianness формата : Big
Идентификатор кодека : 2000
Продолжительность : 1 ч. 40 м.
Вид битрейта : Постоянный
Битрейт : 192 Кбит/сек
Каналы : 2 канала
Расположение каналов : Front: L R
Частота : 48,0 КГц
Частота кадров : 31,250 кадров/сек (1536 SPF)
Битовая глубина : 16 бит
Метод сжатия : С потерями
Размер потока : 138 Мбайт (9%)
Выравнивание : Разделение по промежуткам
Продолжительность промежутка : 42 мс. (1,00 видеокадр)
Время предзагрузки промежутка : 500 мс.
ServiceKind/String : Complete Main

Скриншот c названием фильма

Скриншоты

[cybertorrent.ru].t56441.torrent 
Торрент: Зарегистрирован [ 2018-09-28 16:10 ] · 39BDB2C5AAD176E74355A9D91A033381407FE677

Скачать .torrent

Скачать

17 KB

Статус: проверено
Скачан: 0 раз
Размер: 1,59 GB
terms.php
[Профиль] [ЛС]
Показать сообщения:    
Ответить на тему

Текущее время: 23-Фев 16:09

Часовой пояс: UTC + 3



Вы не можете начинать темы
Вы не можете отвечать на сообщения
Вы не можете редактировать свои сообщения
Вы не можете удалять свои сообщения
Вы не можете голосовать в опросах
Вы не можете прикреплять файлы к сообщениям
Вы можете скачивать файлы