Статистика раздачи
Размер:  238 MB   |    Зарегистрирован:  2 месяца 8 дней   |    Скачан:  0 раз

Полного источника не было: Никогда

 
   
 
 

Keeper ®

Пол:
Не указан
Стаж:
7 месяцев 4 дня
Сообщений:
507

Музыка и песни для детей. Выпуск 6. Попутная песня
Жанр: Детская музыка, Classical
Год издания диска: 2009
Издатель (лейбл): Весть-ТДА
Номер по каталогу: no
Аудиокодек: FLAC
Тип рипа: tracks+.cue
Битрейт аудио: lossless
Продолжительность: 01:03:14
Источник: собственный рип
Наличие сканов в содержимом раздачи: да
Исполнители:
Из фонотеки Государственного арзива фонодокументов

Треклист:

Римский-Корсаков.
01. Три чуда: Белка, Богатыри, Царевна Лебедь из оперы 'Сказка о царе Салтане' (06:57)
02. Полет шмеля из оперы 'Сказка о царе Салтане' (02:13)
03. Вступление к опере 'Садко' (02:11)
Чайковский.
04. Танец маленьких лебедей из балета 'Лебединое озеро' (02:09)
05. Кот в сапогах и белая кошечка из балета 'Спящая красавица' (02:02)
06. Вальс из балета 'Спящая красавица' (01:28)
Глинка.
07. Арагонская охота автор музыки (02:09)
08. Уж как по мосту, мосточку (народная) (02:51)
Чайковский.
09. Марш из балета 'Щелкунчик' (01:08)
Жорж Бизе.
10. Увертюра из оперы 'Кармен' (01:34)
11. Марш мальчишек из оперы 'Кармен' (03:19)
Григ.
12. Шествие гномов (03:16)
13. В пещере горного короля (02:36)
Прокофьев.
14. Вальс из балета 'Золушка' (03:34)
Григ.
15. Утро (02:08)
Чайковский.
16. Песня жаворонка (02:03)
17. У меня ль во садочке (народная) (00:50)
18. о вьюном я хожу (народная) (01:41)
Глинка.
19. Попутная песня (01:21)
Дунаевский.
20. Увертюра из к/ф 'Дети капитана Гранта' (04:02)
21. Песенка капитана (03:19)
22. Эх, хорошо! (народная) (01:41)
Блантер.
23. Катюша (02:35)
Чернецкий.
24. Встречный марш (00:47)
Петров.
25. Я шагаю по Москве (02:04)
Кабалевский.
26. Школьные годы (03:16)
-

LOG EAC:

Exact Audio Copy V1.0 beta 3 from 29. August 2011
EAC extraction logfile from 20. December 2015, 13:26
VA / Музыка и песни для детей. Выпуск 6. Попутная песня
Used drive : PIONEER DVD-RW DVR-221L Adapter: 2 ID: 0
Read mode : Secure
Utilize accurate stream : Yes
Defeat audio cache : Yes
Make use of C2 pointers : No
Read offset correction : 6
Overread into Lead-In and Lead-Out : No
Fill up missing offset samples with silence : Yes
Delete leading and trailing silent blocks : No
Null samples used in CRC calculations : Yes
Used interface : Installed external ASPI interface
Gap handling : Appended to previous track
Used output format : User Defined Encoder
Selected bitrate : 768 kBit/s
Quality : High
Add ID3 tag : No
Command line compressor : C:\Program Files\Exact Audio Copy\Flac\flac.exe
Additional command line options : -6 -V -T "ARTIST=%artist%" -T "TITLE=%title%" -T "ALBUM=%albumtitle%" -T "DATE=%year%" -T "TRACKNUMBER=%tracknr%" -T "GENRE=%genre%" -T "COMMENT=%comment%" -T "ALBUMARTIST=%albuminterpret%" -T "COMPOSER=%composer%" -T "DISCNUMBER=%cdnumber%" -T "TOTALDISCS=%totalcds%" -T "TOTALTRACKS=%numtracks%" %source% -o %dest%
TOC of the extracted CD
Track | Start | Length | Start sector | End sector
---------------------------------------------------------
1 | 0:00.00 | 6:56.45 | 0 | 31244
2 | 6:56.45 | 2:13.03 | 31245 | 41222
3 | 9:09.48 | 2:11.02 | 41223 | 51049
4 | 11:20.50 | 2:09.34 | 51050 | 60758
5 | 13:30.09 | 2:01.42 | 60759 | 69875
6 | 15:31.51 | 1:27.71 | 69876 | 76471
7 | 16:59.47 | 2:09.12 | 76472 | 86158
8 | 19:08.59 | 2:51.03 | 86159 | 98986
9 | 21:59.62 | 1:07.38 | 98987 | 104049
10 | 23:07.25 | 1:34.34 | 104050 | 111133
11 | 24:41.59 | 3:18.64 | 111134 | 126047
12 | 28:00.48 | 3:15.47 | 126048 | 140719
13 | 31:16.20 | 2:36.20 | 140720 | 152439
14 | 33:52.40 | 3:33.58 | 152440 | 168472
15 | 37:26.23 | 2:08.04 | 168473 | 178076
16 | 39:34.27 | 2:02.62 | 178077 | 187288
17 | 41:37.14 | 0:50.34 | 187289 | 191072
18 | 42:27.48 | 1:40.55 | 191073 | 198627
19 | 44:08.28 | 1:21.20 | 198628 | 204722
20 | 45:29.48 | 4:01.39 | 204723 | 222836
21 | 49:31.12 | 3:19.21 | 222837 | 237782
22 | 52:50.33 | 1:41.36 | 237783 | 245393
23 | 54:31.69 | 2:35.20 | 245394 | 257038
24 | 57:07.14 | 0:46.66 | 257039 | 260554
25 | 57:54.05 | 2:03.54 | 260555 | 269833
26 | 59:57.59 | 3:16.14 | 269834 | 284547
Track 1
Filename D:\EAC\01 - Римский-Корсаков. Три чуда- Белка, Богатыри, Царевна Лебедь из оперы ''Сказка о царе Салтане''.wav
Pre-gap length 0:00:02.00
Peak level 99.0 %
Extraction speed 2.9 X
Track quality 100.0 %
Test CRC 59F28EB0
Copy CRC 59F28EB0
Track not present in AccurateRip database
Copy OK
Track 2
Filename D:\EAC\02 - Полет шмеля из оперы ''Сказка о царе Салтане''.wav
Peak level 99.0 %
Extraction speed 2.7 X
Track quality 100.0 %
Test CRC B9C2346B
Copy CRC B9C2346B
Track not present in AccurateRip database
Copy OK
Track 3
Filename D:\EAC\03 - Вступление к опере ''Садко''.wav
Pre-gap length 0:00:02.00
Peak level 99.0 %
Extraction speed 2.8 X
Track quality 100.0 %
Test CRC EA90B47E
Copy CRC EA90B47E
Track not present in AccurateRip database
Copy OK
Track 4
Filename D:\EAC\04 - Чайковский. Танец маленьких лебедей из балета ''Лебединое озеро''.wav
Pre-gap length 0:00:02.00
Peak level 99.0 %
Extraction speed 2.0 X
Track quality 99.9 %
Test CRC 1FBA91B4
Copy CRC 1FBA91B4
Track not present in AccurateRip database
Copy OK
Track 5
Filename D:\EAC\05 - Кот в сапогах и белая кошечка из балета ''Спящая красавица''.wav
Pre-gap length 0:00:02.00
Peak level 99.0 %
Extraction speed 3.0 X
Track quality 100.0 %
Test CRC 5D32E11A
Copy CRC 5D32E11A
Track not present in AccurateRip database
Copy OK
Track 6
Filename D:\EAC\06 - Вальс из балета ''Спящая красавица''.wav
Pre-gap length 0:00:02.00
Peak level 99.0 %
Extraction speed 1.5 X
Track quality 99.8 %
Test CRC AB0B386B
Copy CRC AB0B386B
Track not present in AccurateRip database
Copy OK
Track 7
Filename D:\EAC\07 - Глинка. Арагонская охота автор музыки.wav
Peak level 99.0 %
Extraction speed 2.2 X
Track quality 99.9 %
Test CRC 1F04CB40
Copy CRC 1F04CB40
Track not present in AccurateRip database
Copy OK
Track 8
Filename D:\EAC\08 - Уж как по мосту, мосточку (народная).wav
Peak level 99.0 %
Extraction speed 3.6 X
Track quality 100.0 %
Test CRC 82A56264
Copy CRC 82A56264
Track not present in AccurateRip database
Copy OK
Track 9
Filename D:\EAC\09 - Чайковский. Марш из балета ''Щелкунчик''.wav
Pre-gap length 0:00:02.00
Peak level 99.0 %
Extraction speed 2.9 X
Track quality 100.0 %
Test CRC 54CFC3FF
Copy CRC 54CFC3FF
Track not present in AccurateRip database
Copy OK
Track 10
Filename D:\EAC\10 - Жорж Бизе. Увертюра из оперы ''Кармен''.wav
Pre-gap length 0:00:02.00
Peak level 99.0 %
Extraction speed 3.2 X
Track quality 100.0 %
Test CRC CE8F96B8
Copy CRC CE8F96B8
Track not present in AccurateRip database
Copy OK
Track 11
Filename D:\EAC\11 - Марш мальчишек из оперы ''Кармен''.wav
Pre-gap length 0:00:02.00
Peak level 99.0 %
Extraction speed 2.7 X
Track quality 99.9 %
Test CRC DB35A578
Copy CRC DB35A578
Track not present in AccurateRip database
Copy OK
Track 12
Filename D:\EAC\12 - Григ. Шествие гномов.wav
Peak level 99.0 %
Extraction speed 2.8 X
Track quality 100.0 %
Test CRC 1758CAC2
Copy CRC 1758CAC2
Track not present in AccurateRip database
Copy OK
Track 13
Filename D:\EAC\13 - В пещере горного короля.wav
Peak level 99.0 %
Extraction speed 2.5 X
Track quality 100.0 %
Test CRC 23FD282D
Copy CRC 23FD282D
Track not present in AccurateRip database
Copy OK
Track 14
Filename D:\EAC\14 - Прокофьев. Вальс из балета ''Золушка''.wav
Peak level 99.0 %
Extraction speed 2.3 X
Track quality 99.9 %
Test CRC DCAFAC8E
Copy CRC DCAFAC8E
Track not present in AccurateRip database
Copy OK
Track 15
Filename D:\EAC\15 - Григ. Утро.wav
Pre-gap length 0:00:02.00
Peak level 99.0 %
Extraction speed 2.2 X
Track quality 100.0 %
Test CRC 7EFC99F6
Copy CRC 7EFC99F6
Track not present in AccurateRip database
Copy OK
Track 16
Filename D:\EAC\16 - Чайковский. Песня жаворонка.wav
Peak level 99.0 %
Extraction speed 2.0 X
Track quality 99.9 %
Test CRC FC9CD638
Copy CRC FC9CD638
Track not present in AccurateRip database
Copy OK
Track 17
Filename D:\EAC\17 - У меня ль во садочке (народная).wav
Pre-gap length 0:00:02.00
Peak level 99.0 %
Extraction speed 1.3 X
Track quality 99.7 %
Test CRC 9AD73380
Copy CRC 9AD73380
Track not present in AccurateRip database
Copy OK
Track 18
Filename D:\EAC\18 - о вьюном я хожу (народная).wav
Pre-gap length 0:00:02.00
Peak level 99.0 %
Extraction speed 3.1 X
Track quality 100.0 %
Test CRC ACC0A594
Copy CRC ACC0A594
Track not present in AccurateRip database
Copy OK
Track 19
Filename D:\EAC\19 - Глинка. Попутная песня.wav
Pre-gap length 0:00:02.00
Peak level 99.0 %
Extraction speed 2.7 X
Track quality 100.0 %
Test CRC FD48AF5C
Copy CRC FD48AF5C
Track not present in AccurateRip database
Copy OK
Track 20
Filename D:\EAC\20 - Дунаевский. Увертюра из к,ф ''Дети капитана Гранта''.wav
Peak level 99.0 %
Extraction speed 3.9 X
Track quality 100.0 %
Test CRC 7BA6CE6D
Copy CRC 7BA6CE6D
Track not present in AccurateRip database
Copy OK
Track 21
Filename D:\EAC\21 - Песенка капитана.wav
Peak level 99.0 %
Extraction speed 3.7 X
Track quality 100.0 %
Test CRC 64238061
Copy CRC 64238061
Track not present in AccurateRip database
Copy OK
Track 22
Filename D:\EAC\22 - Эх, хорошо! (народная).wav
Peak level 99.0 %
Extraction speed 2.9 X
Track quality 100.0 %
Test CRC EA669A24
Copy CRC EA669A24
Track not present in AccurateRip database
Copy OK
Track 23
Filename D:\EAC\23 - Блантер. Катюша.wav
Pre-gap length 0:00:02.00
Peak level 99.0 %
Extraction speed 3.6 X
Track quality 100.0 %
Test CRC FD312A5D
Copy CRC FD312A5D
Track not present in AccurateRip database
Copy OK
Track 24
Filename D:\EAC\24 - Чернецкий. Встречный марш.wav
Peak level 99.0 %
Extraction speed 2.5 X
Track quality 100.0 %
Test CRC 35A9BA1E
Copy CRC 35A9BA1E
Track not present in AccurateRip database
Copy OK
Track 25
Filename D:\EAC\25 - Петров. Я шагаю по Москве.wav
Pre-gap length 0:00:02.00
Peak level 99.0 %
Extraction speed 3.2 X
Track quality 100.0 %
Test CRC 09CFFD78
Copy CRC 09CFFD78
Track not present in AccurateRip database
Copy OK
Track 26
Filename D:\EAC\26 - Кабалевский. Школьные годы.wav
Pre-gap length 0:00:02.00
Peak level 99.0 %
Extraction speed 3.3 X
Track quality 99.9 %
Test CRC 381F8712
Copy CRC 381F8712
Track not present in AccurateRip database
Copy OK
None of the tracks are present in the AccurateRip database
No errors occurred
End of status report
==== Log checksum 94E833CCCED5E80DBC2ED98C0DEE295CE8955922065E5313A2622DC8E76FEEFC ====

LOG (.CUE):

REM GENRE Classical
REM DATE 2009
REM DISCID 870ED11A
REM COMMENT "ExactAudioCopy v1.0b3"
PERFORMER "VA"
TITLE "Музыка и песни для детей. Выпуск 6. Попутная песня"
FILE "01 - Римский-Корсаков. Три чуда- Белка, Богатыри, Царевна Лебедь из оперы ''Сказка о царе Салтане''.wav" WAVE
TRACK 01 AUDIO
TITLE "Римский-Корсаков. Три чуда: Белка, Богатыри, Царевна Лебедь из оперы 'Сказка ..."
PERFORMER "VA"
INDEX 01 00:00:00
FILE "02 - Полет шмеля из оперы ''Сказка о царе Салтане''.wav" WAVE
TRACK 02 AUDIO
TITLE "Полет шмеля из оперы 'Сказка о царе Салтане'"
PERFORMER "VA"
INDEX 01 00:00:00
TRACK 03 AUDIO
TITLE "Вступление к опере 'Садко'"
PERFORMER "VA"
INDEX 00 02:11:03
FILE "03 - Вступление к опере ''Садко''.wav" WAVE
INDEX 01 00:00:00
TRACK 04 AUDIO
TITLE "Чайковский. Танец маленьких лебедей из балета 'Лебединое озеро'"
PERFORMER "VA"
INDEX 00 02:09:02
FILE "04 - Чайковский. Танец маленьких лебедей из балета ''Лебединое озеро''.wav" WAVE
INDEX 01 00:00:00
TRACK 05 AUDIO
TITLE "Кот в сапогах и белая кошечка из балета 'Спящая красавица'"
PERFORMER "VA"
INDEX 00 02:07:34
FILE "05 - Кот в сапогах и белая кошечка из балета ''Спящая красавица''.wav" WAVE
INDEX 01 00:00:00
TRACK 06 AUDIO
TITLE "Вальс из балета 'Спящая красавица'"
PERFORMER "VA"
INDEX 00 01:59:42
FILE "06 - Вальс из балета ''Спящая красавица''.wav" WAVE
INDEX 01 00:00:00
FILE "07 - Глинка. Арагонская охота автор музыки.wav" WAVE
TRACK 07 AUDIO
TITLE "Глинка. Арагонская охота автор музыки "
PERFORMER "VA"
INDEX 01 00:00:00
FILE "08 - Уж как по мосту, мосточку (народная).wav" WAVE
TRACK 08 AUDIO
TITLE "Уж как по мосту, мосточку (народная)"
PERFORMER "VA"
INDEX 01 00:00:00
TRACK 09 AUDIO
TITLE "Чайковский. Марш из балета 'Щелкунчик'"
PERFORMER "VA"
INDEX 00 02:49:03
FILE "09 - Чайковский. Марш из балета ''Щелкунчик''.wav" WAVE
INDEX 01 00:00:00
TRACK 10 AUDIO
TITLE "Жорж Бизе. Увертюра из оперы 'Кармен'"
PERFORMER "VA"
INDEX 00 01:05:38
FILE "10 - Жорж Бизе. Увертюра из оперы ''Кармен''.wav" WAVE
INDEX 01 00:00:00
TRACK 11 AUDIO
TITLE "Марш мальчишек из оперы 'Кармен'"
PERFORMER "VA"
INDEX 00 01:32:34
FILE "11 - Марш мальчишек из оперы ''Кармен''.wav" WAVE
INDEX 01 00:00:00
FILE "12 - Григ. Шествие гномов.wav" WAVE
TRACK 12 AUDIO
TITLE "Григ. Шествие гномов"
PERFORMER "VA"
INDEX 01 00:00:00
FILE "13 - В пещере горного короля.wav" WAVE
TRACK 13 AUDIO
TITLE "В пещере горного короля"
PERFORMER "VA"
INDEX 01 00:00:00
FILE "14 - Прокофьев. Вальс из балета ''Золушка''.wav" WAVE
TRACK 14 AUDIO
TITLE "Прокофьев. Вальс из балета 'Золушка'"
PERFORMER "VA"
INDEX 01 00:00:00
TRACK 15 AUDIO
TITLE "Григ. Утро"
PERFORMER "VA"
INDEX 00 03:31:58
FILE "15 - Григ. Утро.wav" WAVE
INDEX 01 00:00:00
FILE "16 - Чайковский. Песня жаворонка.wav" WAVE
TRACK 16 AUDIO
TITLE "Чайковский. Песня жаворонка"
PERFORMER "VA"
INDEX 01 00:00:00
TRACK 17 AUDIO
TITLE "У меня ль во садочке (народная)"
PERFORMER "VA"
INDEX 00 02:00:62
FILE "17 - У меня ль во садочке (народная).wav" WAVE
INDEX 01 00:00:00
TRACK 18 AUDIO
TITLE "о вьюном я хожу (народная)"
PERFORMER "VA"
INDEX 00 00:48:34
FILE "18 - о вьюном я хожу (народная).wav" WAVE
INDEX 01 00:00:00
TRACK 19 AUDIO
TITLE "Глинка. Попутная песня"
PERFORMER "VA"
INDEX 00 01:38:55
FILE "19 - Глинка. Попутная песня.wav" WAVE
INDEX 01 00:00:00
FILE "20 - Дунаевский. Увертюра из к,ф ''Дети капитана Гранта''.wav" WAVE
TRACK 20 AUDIO
TITLE "Дунаевский. Увертюра из к/ф 'Дети капитана Гранта' "
PERFORMER "VA"
INDEX 01 00:00:00
FILE "21 - Песенка капитана.wav" WAVE
TRACK 21 AUDIO
TITLE "Песенка капитана"
PERFORMER "VA"
INDEX 01 00:00:00
FILE "22 - Эх, хорошо! (народная).wav" WAVE
TRACK 22 AUDIO
TITLE "Эх, хорошо! (народная)"
PERFORMER "VA"
INDEX 01 00:00:00
TRACK 23 AUDIO
TITLE "Блантер. Катюша"
PERFORMER "VA"
INDEX 00 01:39:36
FILE "23 - Блантер. Катюша.wav" WAVE
INDEX 01 00:00:00
FILE "24 - Чернецкий. Встречный марш.wav" WAVE
TRACK 24 AUDIO
TITLE "Чернецкий. Встречный марш"
PERFORMER "VA"
INDEX 01 00:00:00
TRACK 25 AUDIO
TITLE "Петров. Я шагаю по Москве"
PERFORMER "VA"
INDEX 00 00:44:66
FILE "25 - Петров. Я шагаю по Москве.wav" WAVE
INDEX 01 00:00:00
TRACK 26 AUDIO
TITLE "Кабалевский. Школьные годы"
PERFORMER "VA"
INDEX 00 02:01:54
FILE "26 - Кабалевский. Школьные годы.wav" WAVE
INDEX 01 00:00:00
-Дополнительная информация:
На дисках из серии "Слушаем музыку" представлены оркестры народных инструментов, симфонические оркестры, баян, фортепьяно, духовые инструменты. Для детей дошкольного и младшего школьного возраста..
К сожалению только этот выпуск.-mp3
[cybertorrent.ru].t56503.torrent 
Торрент: Зарегистрирован [ 2018-07-11 16:09 ] · C20AFB4813DBABAE635B470B51D0AA26AEE82CB9

Скачать .torrent

Скачать

22 KB

Статус: проверено
Скачан: 0 раз
Размер: 238 MB
Профиль [ЛС]
Показать сообщения:    

Текущее время: 19-Сен 17:23

Часовой пояс: UTC ± 0



Вы не можете начинать темы
Вы не можете отвечать на сообщения
Вы не можете редактировать свои сообщения
Вы не можете удалять свои сообщения
Вы не можете голосовать в опросах
Вы не можете прикреплять файлы к сообщениям
Вы можете скачивать файлы
Torrents24.ru открытый BitTorrent Torrents24.pl открытый BitTorrent CyberTorrent.ru открытый BitTorrent BtList.ru рейтинг BitTorrent трекеров Яндекс.Метрика