Статистика раздачи
Размер:  249 MB   |    Зарегистрирован:  4 месяца 5 дней   |    Скачан:  0 раз

Полного источника не было: Никогда

 
   
 
 

Keeper ®

Пол:
Не указан
Стаж:
9 месяцев 2 дня
Сообщений:
507

Музыкальные сновидения - Джаз для детей
Жанр: Детская музыка, Jazz
Год издания диска: 2007
Издатель (лейбл): Вимбо
Номер по каталогу: no
Аудиокодек: FLAC
Тип рипа: tracks+.cue
Битрейт аудио: lossless
Продолжительность: 01:04:43
Источник: собственный рип
Наличие сканов в содержимом раздачи: да
Исполнители:
Юрий (Гомберг) Соболев,
Петр Розломий

Треклист:

01. Любовь (06:38)
02. Птица (05:32)
03. Небо (07:10)
04. Камень (05:14)
05. Лес (05:05)
06. Ребенок (05:35)
07. Колыбельная (05:55)
08. Утро (06:45)
09. Зануда (06:18)
10. Зима (05:30)
11. Засохший куст (05:01)
-

LOG EAC:

Exact Audio Copy V1.0 beta 3 from 29. August 2011
EAC extraction logfile from 29. November 2015, 14:57
Ю. Соболев (Гомберг), П. Розломий / Джаз для всех. Музыкальные сновидения
Used drive : PIONEER DVD-RW DVR-221L Adapter: 2 ID: 0
Read mode : Secure
Utilize accurate stream : Yes
Defeat audio cache : Yes
Make use of C2 pointers : No
Read offset correction : 6
Overread into Lead-In and Lead-Out : No
Fill up missing offset samples with silence : Yes
Delete leading and trailing silent blocks : No
Null samples used in CRC calculations : Yes
Used interface : Installed external ASPI interface
Gap handling : Appended to previous track
Used output format : User Defined Encoder
Selected bitrate : 768 kBit/s
Quality : High
Add ID3 tag : No
Command line compressor : C:\Program Files\Exact Audio Copy\Flac\flac.exe
Additional command line options : -6 -V -T "ARTIST=%artist%" -T "TITLE=%title%" -T "ALBUM=%albumtitle%" -T "DATE=%year%" -T "TRACKNUMBER=%tracknr%" -T "GENRE=%genre%" -T "COMMENT=%comment%" -T "ALBUMARTIST=%albuminterpret%" -T "COMPOSER=%composer%" -T "DISCNUMBER=%cdnumber%" -T "TOTALDISCS=%totalcds%" -T "TOTALTRACKS=%numtracks%" %source% -o %dest%
TOC of the extracted CD
Track | Start | Length | Start sector | End sector
---------------------------------------------------------
1 | 0:00.00 | 6:38.00 | 0 | 29849
2 | 6:38.00 | 5:32.00 | 29850 | 54749
3 | 12:10.00 | 7:10.00 | 54750 | 86999
4 | 19:20.00 | 5:14.00 | 87000 | 110549
5 | 24:34.00 | 5:05.00 | 110550 | 133424
6 | 29:39.00 | 5:35.00 | 133425 | 158549
7 | 35:14.00 | 5:55.00 | 158550 | 185174
8 | 41:09.00 | 6:45.00 | 185175 | 215549
9 | 47:54.00 | 6:18.00 | 215550 | 243899
10 | 54:12.00 | 5:30.00 | 243900 | 268649
11 | 59:42.00 | 5:01.00 | 268650 | 291224
Track 1
Filename D:\EAC\01 - Любовь.wav
Pre-gap length 0:00:02.00
Peak level 98.8 %
Extraction speed 5.2 X
Track quality 100.0 %
Test CRC 44C06CAD
Copy CRC 44C06CAD
Track not present in AccurateRip database
Copy OK
Track 2
Filename D:\EAC\02 - Птица.wav
Peak level 98.8 %
Extraction speed 5.0 X
Track quality 99.9 %
Test CRC 112370EE
Copy CRC 112370EE
Track not present in AccurateRip database
Copy OK
Track 3
Filename D:\EAC\03 - Небо.wav
Peak level 98.8 %
Extraction speed 6.4 X
Track quality 100.0 %
Test CRC 21A0E4CD
Copy CRC 21A0E4CD
Track not present in AccurateRip database
Copy OK
Track 4
Filename D:\EAC\04 - Камень.wav
Peak level 98.8 %
Extraction speed 7.0 X
Track quality 100.0 %
Test CRC 6AB62A4F
Copy CRC 6AB62A4F
Track not present in AccurateRip database
Copy OK
Track 5
Filename D:\EAC\05 - Лес.wav
Peak level 99.9 %
Extraction speed 7.4 X
Track quality 100.0 %
Test CRC E5C40C46
Copy CRC E5C40C46
Track not present in AccurateRip database
Copy OK
Track 6
Filename D:\EAC\06 - Ребенок.wav
Peak level 98.8 %
Extraction speed 6.8 X
Track quality 99.9 %
Test CRC B4AA8E4C
Copy CRC B4AA8E4C
Track not present in AccurateRip database
Copy OK
Track 7
Filename D:\EAC\07 - Колыбельная.wav
Peak level 99.9 %
Extraction speed 8.4 X
Track quality 100.0 %
Test CRC AB6C09E1
Copy CRC AB6C09E1
Track not present in AccurateRip database
Copy OK
Track 8
Filename D:\EAC\08 - Утро.wav
Peak level 98.8 %
Extraction speed 8.9 X
Track quality 100.0 %
Test CRC C58FB4A3
Copy CRC C58FB4A3
Track not present in AccurateRip database
Copy OK
Track 9
Filename D:\EAC\09 - Зануда.wav
Peak level 98.8 %
Extraction speed 9.2 X
Track quality 100.0 %
Test CRC 3125C400
Copy CRC 3125C400
Track not present in AccurateRip database
Copy OK
Track 10
Filename D:\EAC\10 - Зима.wav
Peak level 98.8 %
Extraction speed 8.1 X
Track quality 99.9 %
Test CRC 7475C6C3
Copy CRC 7475C6C3
Track not present in AccurateRip database
Copy OK
Track 11
Filename D:\EAC\11 - Засохший куст.wav
Peak level 98.8 %
Extraction speed 9.7 X
Track quality 100.0 %
Test CRC 9219B1FA
Copy CRC 9219B1FA
Track not present in AccurateRip database
Copy OK
None of the tracks are present in the AccurateRip database
No errors occurred
End of status report
==== Log checksum 5A8F39D3CEBFB5C4187FD19756711CF4978F5CFE0829BB1F02D057FB9BF5436E ====

LOG (.CUE):

REM GENRE Jazz
REM DATE 2007
REM DISCID 900F2B0B
REM COMMENT "ExactAudioCopy v1.0b3"
PERFORMER "Ю. Соболев (Гомберг), П. Розломий"
TITLE "Джаз для всех. Музыкальные сновидения"
FILE "01 - Любовь.wav" WAVE
TRACK 01 AUDIO
TITLE "Любовь"
PERFORMER "Ю. Соболев (Гомберг), П. Розломий"
FLAGS DCP
INDEX 01 00:00:00
FILE "02 - Птица.wav" WAVE
TRACK 02 AUDIO
TITLE "Птица"
PERFORMER "Ю. Соболев (Гомберг), П. Розломий"
FLAGS DCP
INDEX 01 00:00:00
FILE "03 - Небо.wav" WAVE
TRACK 03 AUDIO
TITLE "Небо"
PERFORMER "Ю. Соболев (Гомберг), П. Розломий"
FLAGS DCP
INDEX 01 00:00:00
FILE "04 - Камень.wav" WAVE
TRACK 04 AUDIO
TITLE "Камень"
PERFORMER "Ю. Соболев (Гомберг), П. Розломий"
FLAGS DCP
INDEX 01 00:00:00
FILE "05 - Лес.wav" WAVE
TRACK 05 AUDIO
TITLE "Лес"
PERFORMER "Ю. Соболев (Гомберг), П. Розломий"
FLAGS DCP
INDEX 01 00:00:00
FILE "06 - Ребенок.wav" WAVE
TRACK 06 AUDIO
TITLE "Ребенок"
PERFORMER "Ю. Соболев (Гомберг), П. Розломий"
FLAGS DCP
INDEX 01 00:00:00
FILE "07 - Колыбельная.wav" WAVE
TRACK 07 AUDIO
TITLE "Колыбельная"
PERFORMER "Ю. Соболев (Гомберг), П. Розломий"
FLAGS DCP
INDEX 01 00:00:00
FILE "08 - Утро.wav" WAVE
TRACK 08 AUDIO
TITLE "Утро"
PERFORMER "Ю. Соболев (Гомберг), П. Розломий"
FLAGS DCP
INDEX 01 00:00:00
FILE "09 - Зануда.wav" WAVE
TRACK 09 AUDIO
TITLE "Зануда"
PERFORMER "Ю. Соболев (Гомберг), П. Розломий"
FLAGS DCP
INDEX 01 00:00:00
FILE "10 - Зима.wav" WAVE
TRACK 10 AUDIO
TITLE "Зима"
PERFORMER "Ю. Соболев (Гомберг), П. Розломий"
FLAGS DCP
INDEX 01 00:00:00
FILE "11 - Засохший куст.wav" WAVE
TRACK 11 AUDIO
TITLE "Засохший куст"
PERFORMER "Ю. Соболев (Гомберг), П. Розломий"
FLAGS DCP
INDEX 01 00:00:00
-Дополнительная информация: К сожалению только этот выпуск.-mp3
[cybertorrent.ru].t56504.torrent 
Торрент: Зарегистрирован [ 2018-07-11 16:09 ] · F96A03D095D7FE4456BF6B5D7103C052E36A1639

Скачать .torrent

Скачать

21 KB

Статус: проверено
Скачан: 0 раз
Размер: 249 MB
Профиль [ЛС]
Показать сообщения:    

Текущее время: 17-Ноя 11:09

Часовой пояс: UTC ± 0



Вы не можете начинать темы
Вы не можете отвечать на сообщения
Вы не можете редактировать свои сообщения
Вы не можете удалять свои сообщения
Вы не можете голосовать в опросах
Вы не можете прикреплять файлы к сообщениям
Вы можете скачивать файлы
Torrents24.ru открытый BitTorrent Torrents24.pl открытый BitTorrent CyberTorrent.ru открытый BitTorrent BtList.ru рейтинг BitTorrent трекеров Яндекс.Метрика