BitTorrent клиенты



(Country) [CD] Jason Allen - Something I Dreamed - 2001, FLAC (image+.cue), lossless

Ответить на тему
Статистика раздачи
Размер:  283 MB   |    Зарегистрирован:  4 месяца 23 дня   |    Скачан:  0 раз

Полного источника не было: Никогда

 
   
 
 
Автор Сообщение

5at0h ®

Пол: Не указан

Стаж: 1 год

Сообщений: 414

Создавать темы 29-Сен-2018 15:33

[Цитировать]

Jason Allen - Something I Dreamed
Жанр: Country
Носитель: CD
Страна-производитель диска (релиза): USA
Год издания: 2001
Издатель (лейбл): Glad Music Company
Номер по каталогу: D 9000
Страна исполнителя (группы): USA (Texas)
Аудиокодек: FLAC (*.flac)
Тип рипа: image+.cue
Битрейт аудио: lossless
Продолжительность: 38:11
Источник (релизер): own rip
Наличие сканов в содержимом раздачи: да
Треклист:
01. All I've Got To Say (3:04)
02. Next In Line (3:07)
03. Body And Fender Man (2:38)
04. Love Me (3:16)
05. Being Loved Like This (3:26)
06. Lucky Arms (3:04)
07. Love Don't Get Much Colder (3:54)
08. Something I Dreamed (2:55)
09. It's A Doggone Pity (4:04)
10. I Can See Texas From Here (2:30)
11. I'll Share My World With You (3:12)
12. Cryin' For Their Mamas (3:03)

Лог создания рипа

Exact Audio Copy V1.3 from 2. September 2016
EAC extraction logfile from 28. September 2018, 13:22
Jason Allen / Something I Dreamed
Used drive : hp PLDS DVDRW DU8AESH Adapter: 1 ID: 0
Read mode : Secure
Utilize accurate stream : Yes
Defeat audio cache : Yes
Make use of C2 pointers : No
Read offset correction : 6
Overread into Lead-In and Lead-Out : No
Fill up missing offset samples with silence : Yes
Delete leading and trailing silent blocks : No
Null samples used in CRC calculations : Yes
Used interface : Native Win32 interface for Win NT & 2000
Used output format : User Defined Encoder
Selected bitrate : 768 kBit/s
Quality : High
Add ID3 tag : No
Command line compressor : C:\Program Files (x86)\Exact Audio Copy\Flac\flac.exe
Additional command line options : -8 -V -T "ARTIST=%artist%" -T "TITLE=%title%" -T "ALBUM=%albumtitle%" -T "DATE=%year%" -T "TRACKNUMBER=%tracknr%" -T "GENRE=%genre%" -T "PERFORMER=%albuminterpret%" -T "COMPOSER=%composer%" %haslyrics%--tag-from-file=LYRICS="%lyricsfile%"%haslyrics% -T "ALBUMARTIST=%albumartist%" -T "DISCNUMBER=%cdnumber%" -T "TOTALDISCS=%totalcds%" -T "TOTALTRACKS=%numtracks%" -T "COMMENT=%comment%" %source% -o %dest%
TOC of the extracted CD
Track | Start | Length | Start sector | End sector
---------------------------------------------------------
1 | 0:00.00 | 3:03.69 | 0 | 13793
2 | 3:03.69 | 3:06.74 | 13794 | 27817
3 | 6:10.68 | 2:37.38 | 27818 | 39630
4 | 8:48.31 | 3:15.43 | 39631 | 54298
5 | 12:03.74 | 3:25.73 | 54299 | 69746
6 | 15:29.72 | 3:03.42 | 69747 | 83513
7 | 18:33.39 | 3:54.05 | 83514 | 101068
8 | 22:27.44 | 2:55.00 | 101069 | 114193
9 | 25:22.44 | 4:04.19 | 114194 | 132512
10 | 29:26.63 | 2:29.66 | 132513 | 143753
11 | 31:56.54 | 3:11.67 | 143754 | 158145
12 | 35:08.46 | 3:02.63 | 158146 | 171858
Range status and errors
Selected range
Filename C:\Users\Marco\Documents\Jason Allen - Something I Dreamed.wav
Peak level 98.9 %
Extraction speed 1.7 X
Range quality 99.9 %
Test CRC 98CDB432
Copy CRC 98CDB432
Copy OK
No errors occurred
AccurateRip summary
Track 1 accurately ripped (confidence 1) [3BDD5E0E] (AR v2)
Track 2 accurately ripped (confidence 1) [030EC5C8] (AR v2)
Track 3 accurately ripped (confidence 1) [1D0FEDB8] (AR v2)
Track 4 accurately ripped (confidence 1) [B3DFE996] (AR v2)
Track 5 accurately ripped (confidence 1) [DE4DF44D] (AR v2)
Track 6 accurately ripped (confidence 1) [89025611] (AR v2)
Track 7 accurately ripped (confidence 1) [042E0472] (AR v2)
Track 8 accurately ripped (confidence 1) [3DE34C31] (AR v2)
Track 9 accurately ripped (confidence 1) [E5B76D74] (AR v2)
Track 10 accurately ripped (confidence 1) [C6D9E9DF] (AR v2)
Track 11 accurately ripped (confidence 1) [BA6186D9] (AR v2)
Track 12 accurately ripped (confidence 1) [37A55264] (AR v2)
All tracks accurately ripped
End of status report
==== Log checksum 610CC299DD26CF06B93F46CE50B42336E69E6D332C678143C2A7FBDAFA55D640 ====

Содержание индексной карты (.CUE)

REM GENRE Country
REM DATE 2001
REM DISCID 9108F30C
REM COMMENT "ExactAudioCopy v1.3"
PERFORMER "Jason Allen"
TITLE "Something I Dreamed"
REM COMPOSER ""
FILE "Jason Allen - Something I Dreamed.flac" WAVE
TRACK 01 AUDIO
TITLE "All I've Got To Say"
PERFORMER "Jason Allen"
REM COMPOSER ""
INDEX 01 00:00:00
TRACK 02 AUDIO
TITLE "Next In Line"
PERFORMER "Jason Allen"
REM COMPOSER ""
INDEX 00 03:03:21
INDEX 01 03:03:69
TRACK 03 AUDIO
TITLE "Body And Fender Man"
PERFORMER "Jason Allen"
REM COMPOSER ""
INDEX 00 06:10:22
INDEX 01 06:10:68
TRACK 04 AUDIO
TITLE "Love Me"
PERFORMER "Jason Allen"
REM COMPOSER ""
INDEX 00 08:47:64
INDEX 01 08:48:31
TRACK 05 AUDIO
TITLE "Being Loved Like This"
PERFORMER "Jason Allen"
REM COMPOSER ""
INDEX 00 12:03:16
INDEX 01 12:03:74
TRACK 06 AUDIO
TITLE "Lucky Arms"
PERFORMER "Jason Allen"
REM COMPOSER ""
INDEX 00 15:29:35
INDEX 01 15:29:72
TRACK 07 AUDIO
TITLE "Love Don't Get Much Colder"
PERFORMER "Jason Allen"
REM COMPOSER ""
INDEX 00 18:32:60
INDEX 01 18:33:39
TRACK 08 AUDIO
TITLE "Something I Dreamed"
PERFORMER "Jason Allen"
REM COMPOSER ""
INDEX 00 22:26:72
INDEX 01 22:27:44
TRACK 09 AUDIO
TITLE "It's A Doggone Pity"
PERFORMER "Jason Allen"
REM COMPOSER ""
INDEX 00 25:22:04
INDEX 01 25:22:44
TRACK 10 AUDIO
TITLE "I Can See Texas From Here"
PERFORMER "Jason Allen"
REM COMPOSER ""
INDEX 01 29:26:63
TRACK 11 AUDIO
TITLE "I'll Share My World With You"
PERFORMER "Jason Allen"
REM COMPOSER ""
INDEX 00 31:55:27
INDEX 01 31:56:54
TRACK 12 AUDIO
TITLE "Cryin' For Their Mamas"
PERFORMER "Jason Allen"
REM COMPOSER ""
INDEX 00 35:07:67
INDEX 01 35:08:46

Dynamic Range Meter

foobar2000 1.3.15 / Dynamic Range Meter 1.1.1
log date: 2018-09-28 13:27:03
--------------------------------------------------------------------------------
Analyzed: Jason Allen / Something I Dreamed
--------------------------------------------------------------------------------
DR Peak RMS Duration Track
--------------------------------------------------------------------------------
DR11 -0.10 dB -13.15 dB 3:04 01-All I've Got To Say
DR11 -0.10 dB -13.09 dB 3:07 02-Next In Line
DR10 -0.10 dB -11.93 dB 2:38 03-Body And Fender Man
DR10 -0.10 dB -12.23 dB 3:16 04-Love Me
DR10 -0.10 dB -11.92 dB 3:26 05-Being Loved Like This
DR11 -0.10 dB -12.43 dB 3:04 06-Lucky Arms
DR11 -0.10 dB -13.33 dB 3:54 07-Love Don't Get Much Colder
DR10 -0.10 dB -12.43 dB 2:55 08-Something I Dreamed
DR11 -0.10 dB -13.05 dB 4:04 09-It's A Doggone Pity
DR11 -0.10 dB -12.56 dB 2:30 10-I Can See Texas From Here
DR11 -0.10 dB -12.35 dB 3:12 11-I'll Share My World With You
DR10 -0.10 dB -11.77 dB 3:03 12-Cryin' For Their Mamas
--------------------------------------------------------------------------------
Number of tracks: 12
Official DR value: DR11
Samplerate: 44100 Hz
Channels: 2
Bits per sample: 16
Bitrate: 876 kbps
Codec: FLAC
================================================================================

auCDtect

[pre]-----------------------
DON'T MODIFY THIS FILE
-----------------------
PERFORMER: auCDtect Task Manager, ver. 1.6.0 RC1 build 1.6.0.1
Copyright (c) 2008-2010 y-soft. All rights reserved
http://y-soft.org
ANALYZER: auCDtect: CD records authenticity detector, version 0.8.2
Copyright (c) 2004 Oleg Berngardt. All rights reserved.
Copyright (c) 2004 Alexander Djourik. All rights reserved.
FILE: Jason Allen - Something I Dreamed.flac
Size: 250925796 Hash: D76960E54424B0D5EAD49BD9ADAA70FB Accuracy: -m8
Conclusion: CDDA 100%
Signature: 359B67CCF6EF0F442C9F40FEC4DFEEE54FA18FF0

Album Info

Backing Vocals – Bobby Flores
Bass Guitar – Al Quaid
Drums – Dan Breeben
Fiddle – Bobby Flores
Guitar – Jason Allen
Keyboards – Ronnie Huckaby
Lead Guitar – Tommy Detamore
Mandolin – Bobby Flores
Steel Guitar – Tommy Detamore
Vocals – Jason Allen
Produced - Clay Blaker
[cybertorrent.ru].t56562.torrent 
Торрент: Зарегистрирован [ 2018-09-29 15:35 ] · 77A7A9E741C66E06FD13EAB5950A7B92D9172B8C

Скачать .torrent

Скачать

12 KB

Статус: проверено
Скачан: 0 раз
Размер: 283 MB
terms.php
[Профиль] [ЛС]
Показать сообщения:    
Ответить на тему

Текущее время: 23-Фев 15:29

Часовой пояс: UTC + 3



Вы не можете начинать темы
Вы не можете отвечать на сообщения
Вы не можете редактировать свои сообщения
Вы не можете удалять свои сообщения
Вы не можете голосовать в опросах
Вы не можете прикреплять файлы к сообщениям
Вы можете скачивать файлы