BitTorrent клиенты



Три короля / Three Kings (Дэвид О. Расселл / David O. Russell) [1999, США, Австралия, боевик, военный, приключения, BDRip] AVO (Юрий Живов)

Ответить на тему
Статистика раздачи
Размер:  2,06 GB   |    Зарегистрирован:  4 месяца 24 дня   |    Скачан:  0 раз

Полного источника не было: Никогда

 
   
 
 
Автор Сообщение

StartSoft ®

Пол: Не указан

Стаж: 1 год

Сообщений: 1587

Создавать темы 29-Сен-2018 15:33

[Цитировать]

Три короля / Three Kings
Страна: США, Австралия
Жанр: боевик, военный, приключения
Год выпуска: 1999
Продолжительность: 01:54:47
Перевод: Авторский (одноголосый закадровый) Юрий Живов
Субтитры: нет
Режиссер: Дэвид О. Расселл / David O. Russell

В ролях: Джордж Клуни, Марк Уолберг, Айс Кьюб, Спайк Джоунз, Нора Данн, Джейми Кеннеди, Микелти Уильямсон, Клифф Кертис, Саид Тагмауи, Джуди Крир
Описание: Вот и прогремели финальные аккорды войны в Персидском заливе. Войска Саддама Хусейна под натиском американских легионеров были изгнаны из Кувейта. Несущие демократию вздыхают полной грудью от импортируемой в Ирак свободы. Прошедшая под знаменами высоких целей во имя светлого будущего интервенция завершается для кого-то благополучно. Капитан спецподразделения вместе с напарниками становятся случайными обладателями засекреченной карты. Ее значимость от того высока, что на ней отмечено место, где Саддам спрятал клад с золотом. Воодушевленные ценной находкой, военные начинают полномасштабную подготовку к присвоению награбленного Хусейна золота. Заручившись поддержкой друг друга они готовят тщательный план. Но так ли просто достигнуть поставленной цели, когда иракские повстанцы еще не усмирили свой пыл и готовы настигнуть солдат в самый неподходящий момент ? Что спасет их от верной гибели ? Поможет ли в таком щекотливом вопросе дипломатические методы решения проблем ?

Сэмпл: https://yadi.sk/i/1a61z8l8XpbaHw
Качество видео: BDRip (Исходник BDRemux 1080p)
Формат видео: AVI
Видео: XviD 73, 720x304, (2,35:1), 23,976 fps, 2107 Кбит/с, 8 бит, 0.32 bit/pixel
Аудио: Русский (АС3, 6 ch (Front: L C R, Side: L R, LFE), 48,0 KHz, 448 Kbps)

MediaInfo

Общее
Полное имя : D:\Три короля (боевик, военный, приключения 1999 год).avi
Формат : AVI
Формат/Информация : Audio Video Interleave
Профиль формата : OpenDML
Размер файла : 2,06 Гбайт
Продолжительность : 1 ч. 54 м.
Общий поток : 2567 Кбит/сек
Программа кодирования : VirtualDubMod 1.5.10.3 | www.virtualdub-fr.org || (build 2550/release)
Библиотека кодирования : VirtualDubMod build 2550/release
Видео
Идентификатор : 0
Формат : MPEG-4 Visual
Профиль формата : Advanced Simple@L5
Параметр BVOP формата : 2
Параметр QPel формата : Нет
Параметр GMC формата : Без точки перехода
Параметр матрицы формата : Выборочная
Идентификатор кодека : XVID
Идентификатор кодека/Подсказка : XviD
Продолжительность : 1 ч. 54 м.
Битрейт : 2107 Кбит/сек
Ширина : 720 пикселей
Высота : 304 пикселя
Соотношение сторон : 2,35:1
Частота кадров : 23,976 (23976/1000) кадра/сек
Цветовое пространство : YUV
Субдискретизация насыщенности : 4:2:0
Битовая глубина : 8 бит
Тип развёртки : Прогрессивная
Метод сжатия : С потерями
Бит/(Пиксели*Кадры) : 0.402
Размер потока : 1,69 Гбайт (82%)
Библиотека кодирования : XviD 73
Аудио
Идентификатор : 1
Формат : AC-3
Формат/Информация : Audio Coding 3
Расширение режима : CM (complete main)
Параметр Endianness формата : Big
Идентификатор кодека : 2000
Продолжительность : 1 ч. 54 м.
Вид битрейта : Постоянный
Битрейт : 448 Кбит/сек
Каналы : 6 каналов
Расположение каналов : Front: L C R, Side: L R, LFE
Частота : 48,0 КГц
Частота кадров : 31,250 кадров/сек (1536 spf)
Метод сжатия : С потерями
Размер потока : 368 Мбайт (17%)
Выравнивание : Разделение по промежуткам
Продолжительность промежутка : 42 мс. (1,00 видеокадр)
Время предзагрузки промежутка : 500 мс.

Скриншот c названием фильма

Скриншоты

[cybertorrent.ru].t56564.torrent 
Торрент: Зарегистрирован [ 2018-09-29 15:35 ] · 2742DE435571F46D169F2354AA85937DF1B7D705

Скачать .torrent

Скачать

11 KB

Статус: проверено
Скачан: 0 раз
Размер: 2,06 GB
terms.php
[Профиль] [ЛС]
Показать сообщения:    
Ответить на тему

Текущее время: 23-Фев 16:20

Часовой пояс: UTC + 3



Вы не можете начинать темы
Вы не можете отвечать на сообщения
Вы не можете редактировать свои сообщения
Вы не можете удалять свои сообщения
Вы не можете голосовать в опросах
Вы не можете прикреплять файлы к сообщениям
Вы можете скачивать файлы