Статистика раздачи
Размер:  551 MB   |    Зарегистрирован:  2 месяца 8 дней   |    Скачан:  0 раз

Полного источника не было: Никогда

 
   
 
 

Keeper ®

Пол:
Не указан
Стаж:
7 месяцев 4 дня
Сообщений:
507

Raimond Lap - Lovely Pregnancy
Жанр: Детская музыка, New Age, Relax, Instrumental, Piano
Носитель: CD
Страна-производитель диска: Нидерланды
Год издания: 2008
Издатель (лейбл): RGL Music
Номер по каталогу: RGL0692
Страна исполнителя: Нидерланды
Аудиокодек: FLAC (*.flac)
Тип рипа: tracks+.cue
Битрейт аудио: lossless
Источник (релизер): скачано из сети/vnltue
Наличие сканов в содержимом раздачи: да

СD 1


Продолжительность: 00:39:14

Треклист

Lovely Pregnancy 1
01. Lovely Pregnany Theme 1 [00:04:14]
02. Expecting New Life [00:03:57]
03. Pregnant And Alive [00:03:56]
04. Pregnancy Song [00:04:13]
05. Soothing Pregnancy [00:04:23]
06. Happy Pregnancy [00:04:25]
07. Pregnancy Harmony [00:05:37]
08. Pregnancy Whispers [00:03:12]
09. Pregnancy Wonder [00:05:13]

Лог создания рипа

Exact Audio Copy V1.0 beta 3 from 29. August 2011
EAC extraction logfile from 11. March 2015, 23:56
Raimond Lap / Lovely Pregnancy 1
Used drive : hp DVD A DH16ABSH Adapter: 0 ID: 1
Read mode : Secure
Utilize accurate stream : Yes
Defeat audio cache : Yes
Make use of C2 pointers : No
Read offset correction : 6
Overread into Lead-In and Lead-Out : No
Fill up missing offset samples with silence : Yes
Delete leading and trailing silent blocks : No
Null samples used in CRC calculations : Yes
Used interface : Native Win32 interface for Win NT & 2000
Gap handling : Appended to previous track
Used output format : User Defined Encoder
Selected bitrate : 1024 kBit/s
Quality : High
Add ID3 tag : Yes
Command line compressor : C:\Program Files (x86)\Exact Audio Copy\Flac\flac.exe
Additional command line options : -8 -V -T "ARTIST=%artist%" -T "TITLE=%title%" -T "ALBUM=%albumtitle%" -T "DATE=%year%" -T "TRACKNUMBER=%tracknr%" -T "GENRE=%genre%" -T "PERFORMER=%albuminterpret%" -T "COMPOSER=%composer%" %haslyrics%--tag-from-file=LYRICS="%lyricsfile%"%haslyrics% -T "ALBUMARTIST=%albumartist%" -T "DISCNUMBER=%cdnumber%" -T "TOTALDISCS=%totalcds%" -T "TOTALTRACKS=%numtracks%" -T "COMMENT=%comment%" %source% -o %dest%
TOC of the extracted CD
Track | Start | Length | Start sector | End sector
---------------------------------------------------------
1 | 0:00.00 | 4:14.29 | 0 | 19078
2 | 4:14.29 | 3:57.53 | 19079 | 36906
3 | 8:12.07 | 3:56.44 | 36907 | 54650
4 | 12:08.51 | 4:13.46 | 54651 | 73671
5 | 16:22.22 | 4:23.66 | 73672 | 93462
6 | 20:46.13 | 4:25.03 | 93463 | 113340
7 | 25:11.16 | 5:37.15 | 113341 | 138630
8 | 30:48.31 | 3:12.17 | 138631 | 153047
9 | 34:00.48 | 5:13.33 | 153048 | 176555
Track 1
Filename C:\eac rips\Raimond Lap - Lovely Pregnancy 1 (2008) FLAC\01 Lovely Pregnany Theme 1.wav
Pre-gap length 0:00:02.00
Peak level 90.0 %
Extraction speed 1.9 X
Track quality 100.0 %
Test CRC 8A2D7149
Copy CRC 8A2D7149
Accurately ripped (confidence 1) [B0E25909] (AR v1)
Copy OK
Track 2
Filename C:\eac rips\Raimond Lap - Lovely Pregnancy 1 (2008) FLAC\02 Expecting New Life.wav
Pre-gap length 0:00:02.00
Peak level 75.4 %
Extraction speed 1.5 X
Track quality 99.9 %
Test CRC 79546889
Copy CRC 79546889
Accurately ripped (confidence 1) [EC313224] (AR v1)
Copy OK
Track 3
Filename C:\eac rips\Raimond Lap - Lovely Pregnancy 1 (2008) FLAC\03 Pregnant And Alive.wav
Pre-gap length 0:00:02.00
Peak level 90.0 %
Extraction speed 2.2 X
Track quality 100.0 %
Test CRC B6CFB7C5
Copy CRC B6CFB7C5
Accurately ripped (confidence 1) [784E6AB5] (AR v1)
Copy OK
Track 4
Filename C:\eac rips\Raimond Lap - Lovely Pregnancy 1 (2008) FLAC\04 Pregnancy Song.wav
Pre-gap length 0:00:01.98
Peak level 90.0 %
Extraction speed 1.8 X
Track quality 99.9 %
Test CRC F793340B
Copy CRC F793340B
Accurately ripped (confidence 1) [469F5454] (AR v1)
Copy OK
Track 5
Filename C:\eac rips\Raimond Lap - Lovely Pregnancy 1 (2008) FLAC\05 Soothing Pregnancy.wav
Pre-gap length 0:00:02.00
Peak level 90.0 %
Extraction speed 2.6 X
Track quality 100.0 %
Test CRC C61FECDD
Copy CRC C61FECDD
Accurately ripped (confidence 1) [8036F994] (AR v1)
Copy OK
Track 6
Filename C:\eac rips\Raimond Lap - Lovely Pregnancy 1 (2008) FLAC\06 Happy Pregnancy.wav
Pre-gap length 0:00:02.00
Peak level 90.0 %
Extraction speed 2.8 X
Track quality 100.0 %
Test CRC D1B831C7
Copy CRC D1B831C7
Accurately ripped (confidence 1) [E86B6EAC] (AR v1)
Copy OK
Track 7
Filename C:\eac rips\Raimond Lap - Lovely Pregnancy 1 (2008) FLAC\07 Pregnancy Harmony.wav
Pre-gap length 0:00:02.00
Peak level 89.1 %
Extraction speed 3.0 X
Track quality 100.0 %
Test CRC EDA00803
Copy CRC EDA00803
Accurately ripped (confidence 1) [D274B02F] (AR v1)
Copy OK
Track 8
Filename C:\eac rips\Raimond Lap - Lovely Pregnancy 1 (2008) FLAC\08 Pregnancy Whispers.wav
Pre-gap length 0:00:02.00
Peak level 63.7 %
Extraction speed 2.0 X
Track quality 99.9 %
Test CRC FAD573FA
Copy CRC FAD573FA
Accurately ripped (confidence 1) [63092E80] (AR v1)
Copy OK
Track 9
Filename C:\eac rips\Raimond Lap - Lovely Pregnancy 1 (2008) FLAC\09 Pregnancy Wonder.wav
Pre-gap length 0:00:02.00
Peak level 41.4 %
Extraction speed 3.3 X
Track quality 100.0 %
Test CRC 9A0286CC
Copy CRC 9A0286CC
Accurately ripped (confidence 1) [33B0E0EF] (AR v1)
Copy OK
All tracks accurately ripped
No errors occurred
End of status report
---- CUETools DB Plugin V2.1.4
[CTDB TOCID: YoOF0NR.6Zas4Eqe5TGuPyxl2aE-] found
Submit result: YoOF0NR.6Zas4Eqe5TGuPyxl2aE- has been confirmed
Track | CTDB Status
1 | (1/1) Accurately ripped
2 | (1/1) Accurately ripped
3 | (1/1) Accurately ripped
4 | (1/1) Accurately ripped
5 | (1/1) Accurately ripped
6 | (1/1) Accurately ripped
7 | (1/1) Accurately ripped
8 | (1/1) Accurately ripped
9 | (1/1) Accurately ripped
==== Log checksum 97DDB6FE3CB9A34252164ADC1A4460A899A70BF863CBCC8EC2A22390D557CF08 ====

Содержание индексной карты (.CUE)

REM GENRE Ambient
REM DATE 2008
REM DISCID 6E093209
REM COMMENT "ExactAudioCopy v1.0b3"
CATALOG 8717127550692
PERFORMER "Raimond Lap"
TITLE "Lovely Pregnancy 1"
FILE "01 Lovely Pregnany Theme 1.wav" WAVE
TRACK 01 AUDIO
TITLE "Lovely Pregnany Theme 1"
PERFORMER "Raimond Lap"
ISRC NLK780800077
FLAGS DCP
INDEX 01 00:00:00
TRACK 02 AUDIO
TITLE "Expecting New Life"
PERFORMER "Raimond Lap"
ISRC NLK780800078
FLAGS DCP
INDEX 00 04:12:29
FILE "02 Expecting New Life.wav" WAVE
INDEX 01 00:00:00
TRACK 03 AUDIO
TITLE "Pregnant And Alive"
PERFORMER "Raimond Lap"
ISRC NLK780800079
FLAGS DCP
INDEX 00 03:55:53
FILE "03 Pregnant And Alive.wav" WAVE
INDEX 01 00:00:00
TRACK 04 AUDIO
TITLE "Pregnancy Song"
PERFORMER "Raimond Lap"
ISRC NLK780800080
FLAGS DCP
INDEX 00 03:54:45
FILE "04 Pregnancy Song.wav" WAVE
INDEX 01 00:00:00
TRACK 05 AUDIO
TITLE "Soothing Pregnancy"
PERFORMER "Raimond Lap"
ISRC NLK780800081
FLAGS DCP
INDEX 00 04:11:46
FILE "05 Soothing Pregnancy.wav" WAVE
INDEX 01 00:00:00
TRACK 06 AUDIO
TITLE "Happy Pregnancy"
PERFORMER "Raimond Lap"
ISRC NLK780800082
FLAGS DCP
INDEX 00 04:21:66
FILE "06 Happy Pregnancy.wav" WAVE
INDEX 01 00:00:00
TRACK 07 AUDIO
TITLE "Pregnancy Harmony"
PERFORMER "Raimond Lap"
ISRC NLK780800083
FLAGS DCP
INDEX 00 04:23:03
FILE "07 Pregnancy Harmony.wav" WAVE
INDEX 01 00:00:00
TRACK 08 AUDIO
TITLE "Pregnancy Whispers"
PERFORMER "Raimond Lap"
ISRC NLK780800084
FLAGS DCP
INDEX 00 05:35:15
FILE "08 Pregnancy Whispers.wav" WAVE
INDEX 01 00:00:00
TRACK 09 AUDIO
TITLE "Pregnancy Wonder"
PERFORMER "Raimond Lap"
ISRC NLK780800085
FLAGS DCP
INDEX 00 03:10:17
FILE "09 Pregnancy Wonder.wav" WAVE
INDEX 01 00:00:00

СD 2


Продолжительность: 00:37:52

Треклист

Lovely Pregnancy 2
01. Lovely Pregnancy Theme 2 [00:03:29]
02. Happy To Be Pregnant [00:05:06]
03. Cherish Pregnancy [00:03:22]
04. Amazing Pregnancy [00:04:05]
05. Melody Pregnancy [00:05:52]
06. Relaxing Pregnancy [00:04:18]
07. Lovely Pregnancy [00:04:15]
08. Pregnant and Relaxed [00:03:23]
09. Comfortable Pregnancy [00:03:56]

Лог создания рипа

Exact Audio Copy V1.0 beta 3 from 29. August 2011
EAC extraction logfile from 12. March 2015, 0:35
Raimond Lap / Lovely Pregnancy 2
Used drive : hp DVD A DH16ABSH Adapter: 0 ID: 1
Read mode : Secure
Utilize accurate stream : Yes
Defeat audio cache : Yes
Make use of C2 pointers : No
Read offset correction : 6
Overread into Lead-In and Lead-Out : No
Fill up missing offset samples with silence : Yes
Delete leading and trailing silent blocks : No
Null samples used in CRC calculations : Yes
Used interface : Native Win32 interface for Win NT & 2000
Gap handling : Appended to previous track
Used output format : User Defined Encoder
Selected bitrate : 1024 kBit/s
Quality : High
Add ID3 tag : Yes
Command line compressor : C:\Program Files (x86)\Exact Audio Copy\Flac\flac.exe
Additional command line options : -8 -V -T "ARTIST=%artist%" -T "TITLE=%title%" -T "ALBUM=%albumtitle%" -T "DATE=%year%" -T "TRACKNUMBER=%tracknr%" -T "GENRE=%genre%" -T "PERFORMER=%albuminterpret%" -T "COMPOSER=%composer%" %haslyrics%--tag-from-file=LYRICS="%lyricsfile%"%haslyrics% -T "ALBUMARTIST=%albumartist%" -T "DISCNUMBER=%cdnumber%" -T "TOTALDISCS=%totalcds%" -T "TOTALTRACKS=%numtracks%" -T "COMMENT=%comment%" %source% -o %dest%
TOC of the extracted CD
Track | Start | Length | Start sector | End sector
---------------------------------------------------------
1 | 0:00.00 | 3:29.74 | 0 | 15748
2 | 3:29.74 | 5:06.73 | 15749 | 38771
3 | 8:36.72 | 3:22.04 | 38772 | 53925
4 | 11:59.01 | 4:05.30 | 53926 | 72330
5 | 16:04.31 | 5:52.44 | 72331 | 98774
6 | 21:57.00 | 4:18.09 | 98775 | 118133
7 | 26:15.09 | 4:15.70 | 118134 | 137328
8 | 30:31.04 | 3:23.66 | 137329 | 152619
9 | 33:54.70 | 3:56.44 | 152620 | 170363
Track 1
Filename C:\eac rips\Raimond Lap - Lovely Pregnancy 2 (2008) FLAC\01 Lovely Pregnancy Theme 2.wav
Pre-gap length 0:00:02.00
Peak level 90.0 %
Extraction speed 1.8 X
Track quality 100.0 %
Test CRC 0133D6FD
Copy CRC 0133D6FD
Accurately ripped (confidence 1) [0E38E4D0] (AR v1)
Copy OK
Track 2
Filename C:\eac rips\Raimond Lap - Lovely Pregnancy 2 (2008) FLAC\02 Happy To Be Pregnant.wav
Pre-gap length 0:00:02.00
Peak level 90.0 %
Extraction speed 2.1 X
Track quality 100.0 %
Test CRC D24E1E60
Copy CRC D24E1E60
Accurately ripped (confidence 1) [141BC5AD] (AR v1)
Copy OK
Track 3
Filename C:\eac rips\Raimond Lap - Lovely Pregnancy 2 (2008) FLAC\03 Cherish Pregnancy.wav
Pre-gap length 0:00:02.00
Peak level 71.8 %
Extraction speed 2.2 X
Track quality 100.0 %
Test CRC 6305DA70
Copy CRC 6305DA70
Accurately ripped (confidence 1) [C55C10D8] (AR v1)
Copy OK
Track 4
Filename C:\eac rips\Raimond Lap - Lovely Pregnancy 2 (2008) FLAC\04 Amazing Pregnancy.wav
Pre-gap length 0:00:02.00
Peak level 90.0 %
Extraction speed 2.4 X
Track quality 100.0 %
Test CRC 7D477170
Copy CRC 7D477170
Accurately ripped (confidence 1) [C8A868DC] (AR v1)
Copy OK
Track 5
Filename C:\eac rips\Raimond Lap - Lovely Pregnancy 2 (2008) FLAC\05 Melody Pregnancy.wav
Pre-gap length 0:00:01.98
Peak level 82.0 %
Extraction speed 2.1 X
Track quality 99.9 %
Test CRC 6B167EE2
Copy CRC 6B167EE2
Accurately ripped (confidence 1) [E5A2837A] (AR v1)
Copy OK
Track 6
Filename C:\eac rips\Raimond Lap - Lovely Pregnancy 2 (2008) FLAC\06 Relaxing Pregnancy.wav
Pre-gap length 0:00:02.00
Peak level 90.0 %
Extraction speed 2.8 X
Track quality 100.0 %
Test CRC 838C0792
Copy CRC 838C0792
Accurately ripped (confidence 1) [2E1F8B5C] (AR v1)
Copy OK
Track 7
Filename C:\eac rips\Raimond Lap - Lovely Pregnancy 2 (2008) FLAC\07 Lovely Pregnancy.wav
Pre-gap length 0:00:01.98
Peak level 90.0 %
Extraction speed 2.2 X
Track quality 99.9 %
Test CRC C04D1CB5
Copy CRC C04D1CB5
Accurately ripped (confidence 1) [A0606966] (AR v1)
Copy OK
Track 8
Filename C:\eac rips\Raimond Lap - Lovely Pregnancy 2 (2008) FLAC\08 Pregnant and Relaxed.wav
Pre-gap length 0:00:02.00
Peak level 90.0 %
Extraction speed 2.9 X
Track quality 100.0 %
Test CRC FA9A2143
Copy CRC FA9A2143
Accurately ripped (confidence 1) [29169D73] (AR v1)
Copy OK
Track 9
Filename C:\eac rips\Raimond Lap - Lovely Pregnancy 2 (2008) FLAC\09 Comfortable Pregnancy.wav
Pre-gap length 0:00:02.00
Peak level 90.0 %
Extraction speed 3.1 X
Track quality 100.0 %
Test CRC 287E436C
Copy CRC 287E436C
Accurately ripped (confidence 1) [7DF63CBA] (AR v1)
Copy OK
All tracks accurately ripped
No errors occurred
End of status report
---- CUETools DB Plugin V2.1.4
[CTDB TOCID: 1BlKlrcIjaRuA_mq0eBS0J6cDGo-] disk not present in database
Submit result: 1BlKlrcIjaRuA_mq0eBS0J6cDGo- has been uploaded
==== Log checksum 8402184B5DA50516E3CA3321270A7B0D0681E014EE262EEC66D48F5C3C069433 ====

Содержание индексной карты (.CUE)

REM GENRE "New Age"
REM DATE 2008
REM DISCID 6F08DF09
REM COMMENT "ExactAudioCopy v1.0b3"
CATALOG 8717127550708
PERFORMER "Raimond Lap"
TITLE "Lovely Pregnancy 2"
FILE "01 Lovely Pregnancy Theme 2.wav" WAVE
TRACK 01 AUDIO
TITLE "Lovely Pregnancy Theme 2"
PERFORMER "Raimond Lap"
ISRC NLK780800086
FLAGS DCP
INDEX 01 00:00:00
TRACK 02 AUDIO
TITLE "Happy To Be Pregnant"
PERFORMER "Raimond Lap"
ISRC NLK780800087
FLAGS DCP
INDEX 00 03:27:74
FILE "02 Happy To Be Pregnant.wav" WAVE
INDEX 01 00:00:00
TRACK 03 AUDIO
TITLE "Cherish Pregnancy"
PERFORMER "Raimond Lap"
ISRC NLK780800088
FLAGS DCP
INDEX 00 05:04:73
FILE "03 Cherish Pregnancy.wav" WAVE
INDEX 01 00:00:00
TRACK 04 AUDIO
TITLE "Amazing Pregnancy"
PERFORMER "Raimond Lap"
ISRC NLK780800089
FLAGS DCP
INDEX 00 03:20:04
FILE "04 Amazing Pregnancy.wav" WAVE
INDEX 01 00:00:00
TRACK 05 AUDIO
TITLE "Melody Pregnancy"
PERFORMER "Raimond Lap"
ISRC NLK780800090
FLAGS DCP
INDEX 00 04:03:31
FILE "05 Melody Pregnancy.wav" WAVE
INDEX 01 00:00:00
TRACK 06 AUDIO
TITLE "Relaxing Pregnancy"
PERFORMER "Raimond Lap"
ISRC NLK780800091
FLAGS DCP
INDEX 00 05:50:44
FILE "06 Relaxing Pregnancy.wav" WAVE
INDEX 01 00:00:00
TRACK 07 AUDIO
TITLE "Lovely Pregnancy"
PERFORMER "Raimond Lap"
ISRC NLK780800092
FLAGS DCP
INDEX 00 04:16:10
FILE "07 Lovely Pregnancy.wav" WAVE
INDEX 01 00:00:00
TRACK 08 AUDIO
TITLE "Pregnant and Relaxed"
PERFORMER "Raimond Lap"
ISRC NLK780800093
FLAGS DCP
INDEX 00 04:13:70
FILE "08 Pregnant and Relaxed.wav" WAVE
INDEX 01 00:00:00
TRACK 09 AUDIO
TITLE "Comfortable Pregnancy"
PERFORMER "Raimond Lap"
ISRC NLK780800094
FLAGS DCP
INDEX 00 03:21:66
FILE "09 Comfortable Pregnancy.wav" WAVE
INDEX 01 00:00:00

СD 3


Продолжительность: 00:34:56

Треклист

Lovely Pregnancy 3
01. Lovely Pregnancy Theme 3 [00:03:58]
02. Miraculous Pregnancy [00:03:44]
03. Precious Pregnancy [00:04:34]
04. Moving Pregnancy [00:03:08]
05. Glad To Be Pregnant [00:03:20]
06. Celebrate Pregnancy [00:03:59]
07. Musical Pregnancy [00:03:23]
08. I Am Pregnant [00:05:02]
09. Peaceful Pregnancy [00:03:45]

Лог создания рипа

Exact Audio Copy V1.0 beta 3 from 29. August 2011
EAC extraction logfile from 12. March 2015, 1:09
Raimond Lap / Lovely Pregnancy 3
Used drive : hp DVD A DH16ABSH Adapter: 0 ID: 1
Read mode : Secure
Utilize accurate stream : Yes
Defeat audio cache : Yes
Make use of C2 pointers : No
Read offset correction : 6
Overread into Lead-In and Lead-Out : No
Fill up missing offset samples with silence : Yes
Delete leading and trailing silent blocks : No
Null samples used in CRC calculations : Yes
Used interface : Native Win32 interface for Win NT & 2000
Gap handling : Appended to previous track
Used output format : User Defined Encoder
Selected bitrate : 1024 kBit/s
Quality : High
Add ID3 tag : Yes
Command line compressor : C:\Program Files (x86)\Exact Audio Copy\Flac\flac.exe
Additional command line options : -8 -V -T "ARTIST=%artist%" -T "TITLE=%title%" -T "ALBUM=%albumtitle%" -T "DATE=%year%" -T "TRACKNUMBER=%tracknr%" -T "GENRE=%genre%" -T "PERFORMER=%albuminterpret%" -T "COMPOSER=%composer%" %haslyrics%--tag-from-file=LYRICS="%lyricsfile%"%haslyrics% -T "ALBUMARTIST=%albumartist%" -T "DISCNUMBER=%cdnumber%" -T "TOTALDISCS=%totalcds%" -T "TOTALTRACKS=%numtracks%" -T "COMMENT=%comment%" %source% -o %dest%
TOC of the extracted CD
Track | Start | Length | Start sector | End sector
---------------------------------------------------------
1 | 0:00.00 | 3:58.10 | 0 | 17859
2 | 3:58.10 | 3:44.10 | 17860 | 34669
3 | 7:42.20 | 4:34.36 | 34670 | 55255
4 | 12:16.56 | 3:08.15 | 55256 | 69370
5 | 15:24.71 | 3:20.25 | 69371 | 84395
6 | 18:45.21 | 3:59.11 | 84396 | 102331
7 | 22:44.32 | 3:23.46 | 102332 | 117602
8 | 26:08.03 | 5:02.17 | 117603 | 140269
9 | 31:10.20 | 3:45.45 | 140270 | 157189
Track 1
Filename C:\eac rips\Raimond Lap - Lovely Pregnancy 3 (2008) FLAC\01 Lovely Pregnancy Theme 3.wav
Pre-gap length 0:00:02.00
Peak level 90.0 %
Extraction speed 1.9 X
Track quality 100.0 %
Test CRC 8F41949B
Copy CRC 8F41949B
Accurately ripped (confidence 1) [26ABE749] (AR v1)
Copy OK
Track 2
Filename C:\eac rips\Raimond Lap - Lovely Pregnancy 3 (2008) FLAC\02 Miraculous Pregnancy.wav
Pre-gap length 0:00:01.98
Peak level 70.7 %
Extraction speed 2.0 X
Track quality 100.0 %
Test CRC 7B8A8070
Copy CRC 7B8A8070
Accurately ripped (confidence 1) [D4FF1397] (AR v1)
Copy OK
Track 3
Filename C:\eac rips\Raimond Lap - Lovely Pregnancy 3 (2008) FLAC\03 Precious Pregnancy.wav
Pre-gap length 0:00:01.98
Peak level 76.2 %
Extraction speed 2.3 X
Track quality 100.0 %
Test CRC CFB581DD
Copy CRC CFB581DD
Accurately ripped (confidence 1) [2DFA457B] (AR v1)
Copy OK
Track 4
Filename C:\eac rips\Raimond Lap - Lovely Pregnancy 3 (2008) FLAC\04 Moving Pregnancy.wav
Pre-gap length 0:00:02.00
Peak level 90.0 %
Extraction speed 2.0 X
Track quality 99.9 %
Test CRC AC6E7BF3
Copy CRC AC6E7BF3
Accurately ripped (confidence 1) [6773E76D] (AR v1)
Copy OK
Track 5
Filename C:\eac rips\Raimond Lap - Lovely Pregnancy 3 (2008) FLAC\05 Glad To Be Pregnant.wav
Pre-gap length 0:00:02.00
Peak level 90.0 %
Extraction speed 2.4 X
Track quality 100.0 %
Test CRC 7B4D4B13
Copy CRC 7B4D4B13
Accurately ripped (confidence 1) [5B8F825F] (AR v1)
Copy OK
Track 6
Filename C:\eac rips\Raimond Lap - Lovely Pregnancy 3 (2008) FLAC\06 Celebrate Pregnancy.wav
Pre-gap length 0:00:02.00
Peak level 90.0 %
Extraction speed 2.7 X
Track quality 100.0 %
Test CRC B907F703
Copy CRC B907F703
Accurately ripped (confidence 1) [115F704D] (AR v1)
Copy OK
Track 7
Filename C:\eac rips\Raimond Lap - Lovely Pregnancy 3 (2008) FLAC\07 Musical Pregnancy.wav
Pre-gap length 0:00:02.00
Peak level 80.2 %
Extraction speed 2.7 X
Track quality 100.0 %
Test CRC B0897CC1
Copy CRC B0897CC1
Accurately ripped (confidence 1) [5A157F83] (AR v1)
Copy OK
Track 8
Filename C:\eac rips\Raimond Lap - Lovely Pregnancy 3 (2008) FLAC\08 I Am Pregnant.wav
Pre-gap length 0:00:02.00
Peak level 90.0 %
Extraction speed 3.0 X
Track quality 100.0 %
Test CRC D5E8843C
Copy CRC D5E8843C
Accurately ripped (confidence 1) [8DAFC58B] (AR v1)
Copy OK
Track 9
Filename C:\eac rips\Raimond Lap - Lovely Pregnancy 3 (2008) FLAC\09 Peaceful Pregnancy.wav
Pre-gap length 0:00:02.00
Peak level 90.0 %
Extraction speed 3.0 X
Track quality 100.0 %
Test CRC FE3A77AF
Copy CRC FE3A77AF
Accurately ripped (confidence 1) [05D61644] (AR v1)
Copy OK
All tracks accurately ripped
No errors occurred
End of status report
---- CUETools DB Plugin V2.1.4
[CTDB TOCID: RqFGu8f4CtNuzkz8_MAUW5U9ERw-] disk not present in database
Submit result: RqFGu8f4CtNuzkz8_MAUW5U9ERw- has been uploaded
==== Log checksum A5B6ECF901946904090D2A9F160E7427BBA770001031F7A66FB22F59B9CA1088 ====

Содержание индексной карты (.CUE)

REM GENRE Ambient
REM DATE 2008
REM DISCID 73082F09
REM COMMENT "ExactAudioCopy v1.0b3"
CATALOG 8717127550715
PERFORMER "Raimond Lap"
TITLE "Lovely Pregnancy 3"
FILE "01 Lovely Pregnancy Theme 3.wav" WAVE
TRACK 01 AUDIO
TITLE "Lovely Pregnancy Theme 3"
PERFORMER "Raimond Lap"
ISRC NLK780800095
FLAGS DCP
INDEX 01 00:00:00
TRACK 02 AUDIO
TITLE "Miraculous Pregnancy "
PERFORMER "Raimond Lap"
ISRC NLK780800096
FLAGS DCP
INDEX 00 03:56:11
FILE "02 Miraculous Pregnancy.wav" WAVE
INDEX 01 00:00:00
TRACK 03 AUDIO
TITLE "Precious Pregnancy "
PERFORMER "Raimond Lap"
ISRC NLK780800097
FLAGS DCP
INDEX 00 03:42:11
FILE "03 Precious Pregnancy.wav" WAVE
INDEX 01 00:00:00
TRACK 04 AUDIO
TITLE "Moving Pregnancy "
PERFORMER "Raimond Lap"
ISRC NLK780800098
FLAGS DCP
INDEX 00 04:32:36
FILE "04 Moving Pregnancy.wav" WAVE
INDEX 01 00:00:00
TRACK 05 AUDIO
TITLE "Glad To Be Pregnant"
PERFORMER "Raimond Lap"
ISRC NLK780800099
FLAGS DCP
INDEX 00 03:06:15
FILE "05 Glad To Be Pregnant.wav" WAVE
INDEX 01 00:00:00
TRACK 06 AUDIO
TITLE "Celebrate Pregnancy "
PERFORMER "Raimond Lap"
ISRC NLK780800100
FLAGS DCP
INDEX 00 03:18:25
FILE "06 Celebrate Pregnancy.wav" WAVE
INDEX 01 00:00:00
TRACK 07 AUDIO
TITLE "Musical Pregnancy "
PERFORMER "Raimond Lap"
ISRC NLK780800101
FLAGS DCP
INDEX 00 03:57:11
FILE "07 Musical Pregnancy.wav" WAVE
INDEX 01 00:00:00
TRACK 08 AUDIO
TITLE "I Am Pregnant"
PERFORMER "Raimond Lap"
ISRC NLK780800102
FLAGS DCP
INDEX 00 03:21:46
FILE "08 I Am Pregnant.wav" WAVE
INDEX 01 00:00:00
TRACK 09 AUDIO
TITLE "Peaceful Pregnancy "
PERFORMER "Raimond Lap"
ISRC NLK780800103
FLAGS DCP
INDEX 00 05:00:17
FILE "09 Peaceful Pregnancy.wav" WAVE
INDEX 01 00:00:00

Об альбоме

Congratulations, you are expecting a baby, the most precious gift in life.
In the coming period you will need moments of serene rest and relaxation. Lovely Pregnancy offers you a musical experience that will positively influence the development and well-being of your baby. Lovely Pregnancy can become a key element in helping you relax. From three months before birth, your baby will be able to listen to music.
Worldwide, millions of people listen to the music of Raimond Lap, accredited with a double Gold and double Platinum sales. His special way of using harmony, melody and sound contribute to a pleasant, relaxed and comfortable frame of mind for mother and baby. (lovelybaby.rglmusic.com)
Доп. информация:
http://lovelypregnancy.rglmusic.com/
http://www.amazon.com/s/ref=as_li_ss_tl?_encoding=UTF8&camp=1789&creative...YV64M7DDSJ2BGBKH
[cybertorrent.ru].t56561.torrent 
Торрент: Зарегистрирован [ 2018-07-11 16:09 ] · 6A1FA5DDD2E3F97F2413FC62E509992570A14B4B

Скачать .torrent

Скачать

15 KB

Статус: проверено
Скачан: 0 раз
Размер: 551 MB
Профиль [ЛС]
Показать сообщения:    

Текущее время: 19-Сен 17:08

Часовой пояс: UTC ± 0



Вы не можете начинать темы
Вы не можете отвечать на сообщения
Вы не можете редактировать свои сообщения
Вы не можете удалять свои сообщения
Вы не можете голосовать в опросах
Вы не можете прикреплять файлы к сообщениям
Вы можете скачивать файлы
Torrents24.ru открытый BitTorrent Torrents24.pl открытый BitTorrent CyberTorrent.ru открытый BitTorrent BtList.ru рейтинг BitTorrent трекеров Яндекс.Метрика