BitTorrent клиенты



(Pop Rock | Soft Rock | AOR) [CD] Stefan Andersson - Emperors' Day - 1992, FLAC (image+.cue), lossless

Ответить на тему
Статистика раздачи
Размер:  330 MB   |    Зарегистрирован:  4 месяца 22 дня   |    Скачан:  0 раз

Полного источника не было: Никогда

 
   
 
 
Автор Сообщение

folk ®

Пол: Не указан

Стаж: 11 месяцев 23 дня

Сообщений: 368

Создавать темы 30-Сен-2018 16:58

[Цитировать]


Stefan Andersson


Emperors' Day



• Жанр: Pop Rock | Soft Rock | AOR
• Носитель: CD
• Год издания: 1992
• Издатель (лейбл) The Record Station
• Номер по каталогу: STATCD 31
• Страна исполнителя (группы): Sweden
• Аудиокодек: FLAC (*.flac)
• Тип рипа: image+.cue
• Продолжительность: 00:46:00
• Источник (релизер): alzal ®
• Наличие сканов: да

01. Fire (00:03:50)
02. Here Comes The Night (00:04:36)
03. It's Over Now (00:04:01)
04. Catch The Moon (00:04:29)
05. Knock On Wood (00:02:53)
06. Let's Take A Walk (00:04:27)
07. Again (00:03:32)
08. One Of These Days (00:04:50)
09. Another Me (00:04:21)
10. Father (00:05:02)
11. Emperors' Day (00:03:54)
--

• Лог создания рипа

Exact Audio Copy V1.3 from 2. September 2016
Отчёт EAC об извлечении, выполненном 23. сентября 2018, 17:21
Stefan Andersson / Emperors' Day (STATCD 31)
Дисковод: PLEXTOR BD-R PX-B950SA Adapter: 1 ID: 0
Режим чтения : Достоверность
Использование точного потока : Да
Отключение кэша аудио : Да
Использование указателей C2 : Нет
Коррекция смещения при чтении : 6
Способность читать области Lead-in и Lead-out : Нет
Заполнение пропущенных сэмплов тишиной : Да
Удаление блоков с тишиной в начале и конце : Нет
При вычислениях CRC использовались нулевые сэмплы : Да
Интерфейс : Встроенный Win32-интерфейс для Win NT/2000
Выходной формат : Пользовательский кодировщик
Выбранный битрейт : 1024 kBit/s
Качество : Высокий
Добавление ID3-тега : Нет
Утилита сжатия : C:\Program Files (x86)\Exact Audio Copy\FLAC\FLAC.EXE
Дополнительные параметры : -6 -V -T "ARTIST=%artist%" -T "TITLE=%title%" -T "ALBUM=%albumtitle%" -T "DATE=%year%" -T "TRACKNUMBER=%tracknr%" -T "GENRE=%genre%" -T "COMMENT=%comment%" -T "BAND=%albuminterpret%" -T "ALBUMARTIST=%albuminterpret%" -T "COMPOSER=%composer%" %haslyrics%--tag-from-file=LYRICS="%lyricsfile%"%haslyrics% -T "DISCNUMBER=%cdnumber%" -T "TOTALDISCS=%totalcds%" -T "TOTALTRACKS=%numtracks%" %hascover%--picture="%coverfile%"%hascover% %source% -o %dest%
TOC извлечённого CD
Трек | Старт | Длительность | Начальный сектор | Конечный сектор
---------------------------------------------------------------------
1 | 0:00.33 | 3:50.45 | 33 | 17327
2 | 3:51.03 | 4:37.25 | 17328 | 38127
3 | 8:28.28 | 4:02.27 | 38128 | 56304
4 | 12:30.55 | 4:30.18 | 56305 | 76572
5 | 17:00.73 | 2:54.50 | 76573 | 89672
6 | 19:55.48 | 4:28.05 | 89673 | 109777
7 | 24:23.53 | 3:33.22 | 109778 | 125774
8 | 27:57.00 | 4:51.18 | 125775 | 147617
9 | 32:48.18 | 4:22.05 | 147618 | 167272
10 | 37:10.23 | 5:03.22 | 167273 | 190019
11 | 42:13.45 | 3:55.63 | 190020 | 207707
Характеристики диапазона извлечения и сообщения об ошибках
Выбранный диапазон
Имя файла G:\RIP\Stefan Andersson 1992 FLAC by alzal\Stefan Andersson - Emperors' Day (STATCD 31).wav
Пиковый уровень 100.0 %
Скорость извлечения 8.1 X
Качество диапазона 100.0 %
CRC теста 9A35C305
CRC копии 9A35C305
Копирование... OK
Ошибок не произошло
AccurateRip: сводка
Трек 1 : извлечено точно (доверие 19) [FE6B07EC] (AR v2)
Трек 2 : извлечено точно (доверие 21) [128F9AE9] (AR v2)
Трек 3 : извлечено точно (доверие 21) [E23585AE] (AR v2)
Трек 4 : извлечено точно (доверие 21) [EC911614] (AR v2)
Трек 5 : извлечено точно (доверие 21) [D151A92F] (AR v2)
Трек 6 : извлечено точно (доверие 20) [A57B71CB] (AR v2)
Трек 7 : извлечено точно (доверие 21) [98324B21] (AR v2)
Трек 8 : извлечено точно (доверие 21) [9E8947D6] (AR v2)
Трек 9 : извлечено точно (доверие 19) [B34D42E8] (AR v2)
Трек 10 : извлечено точно (доверие 21) [93324821] (AR v2)
Трек 11 : извлечено точно (доверие 21) [9D22EBF2] (AR v2)
Все треки извлечены точно
Конец отчёта
---- CUETools DB Plugin V2.1.6
[CTDB TOCID: MNy17RsU.MHEkrnB7hGtxgRV9hQ-] found
Submit result: MNy17RsU.MHEkrnB7hGtxgRV9hQ- has been confirmed
Track | CTDB Status
1 | (15/19) Accurately ripped, or (1/19) differs in 85 samples @03:50:27-03:50:28
2 | (18/19) Accurately ripped
3 | (18/19) Accurately ripped
4 | (18/19) Accurately ripped
5 | (18/19) Accurately ripped
6 | (18/19) Accurately ripped
7 | (18/19) Accurately ripped
8 | (18/19) Accurately ripped
9 | (14/19) Accurately ripped, or (1/19) differs in 14 samples @04:21:62-04:21:63
10 | (18/19) Accurately ripped
11 | (18/19) Accurately ripped
==== Контрольная сумма отчёта DCFCDB9C4795087B906D4172C49F7CB63EF4F61E3AD0C76AA7A6958EAF1321FB ====
-

• Содержание индексной карты

REM GENRE "Pop Rock | Soft Rock | AOR"
REM DATE 1992
REM DISCID 850AD10B
REM COMMENT "ExactAudioCopy v1.3"
PERFORMER "Stefan Andersson"
TITLE "Emperors' Day (STATCD 31)"
REM COMPOSER ""
FILE "Stefan Andersson - Emperors' Day (STATCD 31).flac" WAVE
TRACK 01 AUDIO
TITLE "Fire"
PERFORMER "Stefan Andersson"
REM COMPOSER ""
INDEX 00 00:00:00
INDEX 01 00:00:33
TRACK 02 AUDIO
TITLE "Here Comes The Night"
PERFORMER "Stefan Andersson"
REM COMPOSER ""
INDEX 00 03:50:45
INDEX 01 03:51:03
TRACK 03 AUDIO
TITLE "It's Over Now"
PERFORMER "Stefan Andersson"
REM COMPOSER ""
INDEX 00 08:27:65
INDEX 01 08:28:28
TRACK 04 AUDIO
TITLE "Catch The Moon"
PERFORMER "Stefan Andersson"
REM COMPOSER ""
INDEX 00 12:30:00
INDEX 01 12:30:55
TRACK 05 AUDIO
TITLE "Knock On Wood"
PERFORMER "Stefan Andersson"
REM COMPOSER ""
INDEX 00 17:00:05
INDEX 01 17:00:73
TRACK 06 AUDIO
TITLE "Let's Take A Walk"
PERFORMER "Stefan Andersson"
REM COMPOSER ""
INDEX 00 19:54:28
INDEX 01 19:55:48
TRACK 07 AUDIO
TITLE "Again"
PERFORMER "Stefan Andersson"
REM COMPOSER ""
INDEX 00 24:23:35
INDEX 01 24:23:53
TRACK 08 AUDIO
TITLE "One Of These Days"
PERFORMER "Stefan Andersson"
REM COMPOSER ""
INDEX 00 27:56:40
INDEX 01 27:57:00
TRACK 09 AUDIO
TITLE "Another Me"
PERFORMER "Stefan Andersson"
REM COMPOSER ""
INDEX 00 32:47:38
INDEX 01 32:48:18
TRACK 10 AUDIO
TITLE "Father"
PERFORMER "Stefan Andersson"
REM COMPOSER ""
INDEX 00 37:09:58
INDEX 01 37:10:23
TRACK 11 AUDIO
TITLE "Emperors' Day"
PERFORMER "Stefan Andersson"
REM COMPOSER ""
INDEX 00 42:12:38
INDEX 01 42:13:45
-
[cybertorrent.ru].t56688.torrent 
Торрент: Зарегистрирован [ 2018-09-30 17:00 ] · D71477FE6731948CEC134F127630E8F86606F5DF

Скачать .torrent

Скачать

14 KB

Статус: проверено
Скачан: 0 раз
Размер: 330 MB
terms.php
[Профиль] [ЛС]
Показать сообщения:    
Ответить на тему

Текущее время: 23-Фев 16:35

Часовой пояс: UTC + 3



Вы не можете начинать темы
Вы не можете отвечать на сообщения
Вы не можете редактировать свои сообщения
Вы не можете удалять свои сообщения
Вы не можете голосовать в опросах
Вы не можете прикреплять файлы к сообщениям
Вы можете скачивать файлы