BitTorrent клиенты



Metallica - Some Kind Of Monster (русский перевод) [2014, Thrash Metal, Documentary, BDRip, 1080p]

Ответить на тему
Статистика раздачи
Размер:  10,4 GB   |    Зарегистрирован:  4 месяца 20 дней   |    Скачан:  0 раз

Полного источника не было: Никогда

 
   
 
 
Автор Сообщение

craft ®

Пол: Не указан

Стаж: 1 год

Сообщений: 727

Создавать темы 01-Окт-2018 16:03

[Цитировать]

-- -Жанр: Thrash Metal, Documentary
Продолжительность: 02:20:33
Год выпуска: 2014-Описание: «Some Kind of Monster» — документальный фильм о группе Metallica. Название фильма было взято по одноименной песне из альбома St. Anger. То, что начиналось как заурядный документальный фильм о создании альбома St. Anger, переросло в гораздо более глубокое изучение отношений между участниками группы и их творческого процесса. В фильме демонстрируется множество студийных репетиций и фрагментов концертных выступлений. Фильм выиграл приз «Независимый дух» за Лучший документальный проект.-Треклист:
Some Kind Of Monster (Movie) - 39 глав-Источник: Metallica - Some Kind Of Monster (русский перевод) [2014, Thrash Metal, Documentary, Blu-ray Custom, 1080i]
Рип сделан по просьбе zoubkovski--Качество: BDRip
Разрешение видео/развертка: 1080p
Контейнер: MKV
Видео кодек: H.264
Аудио кодек: AC3 / PCM
Видео: MPEG-4 AVC / 1432*1064 / (4:3) / 8100 kbps / 29.97 fps
Аудио #1: Dolby Digital Audio / Russian / 2.0 / 48 kHz / 192 kbps (русский перевод с VHS Премьер-мультимедиа)
Аудио #2: LPCM Audio / English / 2.0 / 48 kHz / 2304 kbps / 24-bit

MI

Общее
Уникальный идентификатор : 198729170767065337829533597469551023398 (0x9581D898B8D858C9BC869F8AE216D526)
Полное имя : D:\Video\Metallica - Some Kind Of Monster 1080р.mkv
Формат : Matroska
Версия формата : Version 4
Размер файла : 10,4 Гбайт
Продолжительность : 2 ч. 20 м.
Общий поток : 10,6 Мбит/сек
Дата кодирования : UTC 2018-09-26 09:18:54
Программа кодирования : mkvmerge v7.1.0 ('Good Love') 64bit built on Jul 27 2014 13:06:55
Библиотека кодирования : libebml v1.3.0 + libmatroska v1.4.1
Видео
Идентификатор : 1
Формат : AVC
Формат/Информация : Advanced Video Codec
Профиль формата : High@L4.1
Настройки формата : CABAC / 5 Ref Frames
Параметр CABAC формата : Да
Параметр RefFrames формата : 5 кадров
Идентификатор кодека : V_MPEG4/ISO/AVC
Продолжительность : 2 ч. 20 м.
Битрейт : 8100 Кбит/сек
Ширина : 1432 пикселя
Высота : 1064 пикселя
Соотношение сторон : 4:3
Режим частоты кадров : Постоянный
Частота кадров : 29,970 (30000/1001) кадров/сек
Цветовое пространство : YUV
Субдискретизация насыщенности : 4:2:0
Битовая глубина : 8 бит
Тип развёртки : Прогрессивная
Бит/(Пиксели*Кадры) : 0.177
Размер потока : 7,95 Гбайт (76%)
Библиотека кодирования : x264 core 152 r2851 ba24899
Настройки программы : cabac=1 / ref=5 / deblock=1:-2:-2 / analyse=0x3:0x133 / me=umh / subme=9 / psy=1 / psy_rd=1.00:0.15 / mixed_ref=1 / me_range=16 / chroma_me=1 / trellis=2 / 8x8dct=1 / cqm=0 / deadzone=21,11 / fast_pskip=1 / chroma_qp_offset=-3 / threads=6 / lookahead_threads=1 / sliced_threads=0 / nr=0 / decimate=1 / interlaced=0 / bluray_compat=0 / constrained_intra=0 / bframes=3 / b_pyramid=2 / b_adapt=2 / b_bias=0 / direct=3 / weightb=1 / open_gop=0 / weightp=2 / keyint=300 / keyint_min=29 / scenecut=40 / intra_refresh=0 / rc_lookahead=60 / rc=2pass / mbtree=1 / bitrate=8100 / ratetol=1.0 / qcomp=0.60 / qpmin=0 / qpmax=69 / qpstep=4 / cplxblur=20.0 / qblur=0.5 / vbv_maxrate=50000 / vbv_bufsize=50000 / nal_hrd=none / filler=0 / ip_ratio=1.40 / aq=1:1.00
Default : Да
Forced : Нет
Аудио #1
Идентификатор : 2
Формат : AC-3
Формат/Информация : Audio Coding 3
Коммерческое название : Dolby Digital
Идентификатор кодека : A_AC3
Продолжительность : 2 ч. 20 м.
Вид битрейта : Постоянный
Битрейт : 192 Кбит/сек
Каналы : 2 канала
Channel layout : L R
Частота : 48,0 КГц
Частота кадров : 31,250 кадров/сек (1536 SPF)
Битовая глубина : 16 бит
Метод сжатия : С потерями
Размер потока : 193 Мбайт (2%)
ServiceKind/String : Complete Main
Default : Да
Forced : Нет
Аудио #2
Идентификатор : 3
Формат : PCM
Настройки формата : Little / Signed
Идентификатор кодека : A_PCM/INT/LIT
Продолжительность : 2 ч. 20 м.
Вид битрейта : Постоянный
Битрейт : 2304 Кбит/сек
Каналы : 2 канала
Частота : 48,0 КГц
Частота кадров : 32,000 кадра/сек (1500 SPF)
Битовая глубина : 24 бит
Размер потока : 2,26 Гбайт (22%)
Default : Нет
Forced : Нет
Меню
00:00:00.000 : en:Chapter 01
00:00:14.481 : en:Chapter 02
00:03:47.026 : en:Chapter 03
00:05:50.216 : en:Chapter 04
00:07:29.882 : en:Chapter 05
00:11:49.408 : en:Chapter 06
00:15:06.272 : en:Chapter 07
00:16:58.817 : en:Chapter 08
00:20:34.633 : en:Chapter 09
00:23:46.625 : en:Chapter 10
00:26:27.485 : en:Chapter 11
00:31:59.784 : en:Chapter 12
00:33:03.314 : en:Chapter 13
00:37:16.300 : en:Chapter 14
00:42:21.071 : en:Chapter 15
00:45:34.331 : en:Chapter 16
00:51:26.049 : en:Chapter 17
00:55:20.383 : en:Chapter 18
00:57:17.901 : en:Chapter 19
01:02:45.294 : en:Chapter 20
01:04:20.223 : en:Chapter 21
01:07:40.456 : en:Chapter 22
01:11:03.425 : en:Chapter 23
01:14:07.910 : en:Chapter 24
01:18:28.737 : en:Chapter 25
01:23:27.435 : en:Chapter 26
01:25:51.446 : en:Chapter 27
01:31:33.921 : en:Chapter 28
01:34:42.243 : en:Chapter 29
01:40:39.299 : en:Chapter 30
01:44:34.801 : en:Chapter 31
01:47:47.461 : en:Chapter 32
01:55:09.869 : en:Chapter 33
01:58:19.025 : en:Chapter 34
02:02:10.489 : en:Chapter 35
02:04:08.174 : en:Chapter 36
02:07:54.500 : en:Chapter 37
02:10:43.569 : en:Chapter 38
02:20:32.657 : en:Chapter 39

Log x264

x264 [info]: using SAR=1/1
x264 [info]: using cpu capabilities: MMX2 SSE2Fast SSSE3 SSE4.2 AVX FMA3 BMI2 AVX2
x264 [info]: profile High, level 4.1
x264 [info]: frame I:1806 Avg QP:14.83 size:139416
x264 [info]: frame P:71644 Avg QP:17.53 size: 63569
x264 [info]: frame B:179308 Avg QP:20.41 size: 20807
x264 [info]: consecutive B-frames: 2.5% 4.2% 13.7% 79.6%
x264 [info]: mb I I16..4: 10.5% 69.1% 20.4%
x264 [info]: mb P I16..4: 5.3% 20.0% 2.2% P16..4: 37.7% 17.5% 8.9% 0.3% 0.1% skip: 7.9%
x264 [info]: mb B I16..4: 0.8% 2.2% 0.2% B16..8: 36.9% 9.1% 1.8% direct:12.0% skip:36.9% L0:44.2% L1:41.6% BI:14.2%
x264 [info]: 8x8 transform intra:71.3% inter:61.5%
x264 [info]: direct mvs spatial:98.2% temporal:1.8%
x264 [info]: coded y,uvDC,uvAC intra: 62.5% 73.2% 41.1% inter: 27.8% 30.1% 2.5%
x264 [info]: i16 v,h,dc,p: 41% 24% 7% 28%
x264 [info]: i8 v,h,dc,ddl,ddr,vr,hd,vl,hu: 14% 14% 14% 7% 9% 10% 11% 10% 12%
x264 [info]: i4 v,h,dc,ddl,ddr,vr,hd,vl,hu: 17% 18% 9% 6% 11% 11% 11% 8% 10%
x264 [info]: i8c dc,h,v,p: 37% 30% 18% 15%
x264 [info]: Weighted P-Frames: Y:4.1% UV:2.5%
x264 [info]: ref P L0: 47.1% 9.4% 24.0% 9.0% 10.2% 0.3% 0.0%
x264 [info]: ref B L0: 81.9% 12.3% 4.0% 1.8%
x264 [info]: ref B L1: 96.9% 3.1%
x264 [info]: kb/s:8097.98
[cybertorrent.ru].t56739.torrent 
Торрент: Зарегистрирован [ 2018-10-01 16:05 ] · BC80F9615741F26800ED323E3D14276695942F5E

Скачать .torrent

Скачать

52 KB

Статус: проверено
Скачан: 0 раз
Размер: 10,4 GB
terms.php
[Профиль] [ЛС]
Показать сообщения:    
Ответить на тему

Текущее время: 22-Фев 02:38

Часовой пояс: UTC + 3



Вы не можете начинать темы
Вы не можете отвечать на сообщения
Вы не можете редактировать свои сообщения
Вы не можете удалять свои сообщения
Вы не можете голосовать в опросах
Вы не можете прикреплять файлы к сообщениям
Вы можете скачивать файлы