Статистика раздачи
Размер:  136 MB   |    Зарегистрирован:  6 дней   |    Скачан:  0 раз

Полного источника не было: Никогда

 
   
 
 

Keeper ®

Пол:
Не указан
Стаж:
5 месяцев 2 дня
Сообщений:
495

The Chipmunks / Christmas with the Chipmunks
Жанр: Children's
Страна-производитель диска: Canada
Год издания диска: (1985) 1994
Издатель (лейбл): EMI Rec./CEMA
Номер по каталогу: S256718
Аудиокодек: FLAC
Тип рипа: tracks+.cue
Битрейт аудио: lossless
Продолжительность: 0:21:45.
Источник: собственный рип
Наличие сканов в содержимом раздачи: да
Треклист:
01. The Chipmunk Song (Christmas Don't Be Late) [0:02:22.65]
02. (All I Want for Christmas Is) My Two Front Teeth [0:01:41.42]
03. Jingle Bells [0:02:36.65]
04. Frosty the Snowman [0:02:00.55]
05. Santa Claus Is Comin' to Town [0:01:43.65]
06. Rudolph, The Red-Nosed Reindeer [0:02:30.73]
07. The Night Before Christmas [0:03:01.65]
08. Silver Bells [0:02:18.05]
09. White Christmas [0:02:35.17]
10. We Wish You a Merry Christmas [0:00:53.65]

Лог создания рипа

Exact Audio Copy V1.0 beta 3 from 29. August 2011
Отчёт EAC об извлечении, выполненном 22. сентября 2016, 16:06
Chipmunks, The / Christmas with the Chipmunks
Дисковод: ASUS DRW-1814BLT Adapter: 4 ID: 0
Режим чтения : Достоверность
Использование точного потока : Да
Отключение кэша аудио : Да
Использование указателей C2 : Нет
Коррекция смещения при чтении : 6
Способность читать области Lead-in и Lead-out : Нет
Заполнение пропущенных сэмплов тишиной : Да
Удаление блоков с тишиной в начале и конце : Нет
При вычислениях CRC использовались нулевые сэмплы : Да
Интерфейс : Встроенный Win32-интерфейс для Win NT/2000
Обработка зазоров : Добавлено к предыдущему треку
Выходной формат : Пользовательский кодировщик
Выбранный битрейт : 128 kBit/s
Качество : Высокий
Добавление ID3-тега : Нет
Утилита сжатия : C:\Program Files\Exact Audio Copy\Flac\flac.exe
Дополнительные параметры : -V -8 -T "Genre=%genre%" -T "Artist=%artist%" -T "Title=%title%" -T "Album=%albumtitle%" -T "Date=%year%" -T "Tracknumber=%tracknr%" -T "Comment=EAC1.0b2 FLAC -8" %source%
TOC извлечённого CD
Трек | Старт | Длительность | Начальный сектор | Конечный сектор
---------------------------------------------------------------------
1 | 0:00.25 | 2:22.65 | 25 | 10739
2 | 2:23.15 | 1:41.42 | 10740 | 18356
3 | 4:04.57 | 2:36.65 | 18357 | 30121
4 | 6:41.47 | 2:00.55 | 30122 | 39176
5 | 8:42.27 | 1:43.65 | 39177 | 46966
6 | 10:26.17 | 2:30.73 | 46967 | 58289
7 | 12:57.15 | 3:01.65 | 58290 | 71929
8 | 15:59.05 | 2:18.05 | 71930 | 82284
9 | 18:17.10 | 2:35.17 | 82285 | 93926
10 | 20:52.27 | 0:53.65 | 93927 | 97966
Трек 1
Имя файла R:\Раздача 67\The Chipmunks - (1985) 1994 - Christmas With The Chipmunks\01 The Chipmunk Song (Christmas Don't Be Late) .wav
Длина предзазора 0:00:02.25
Пиковый уровень 92.6 %
Скорость извлечения 4.8 X
Качество трека 100.0 %
CRC теста B6C8419E
CRC копии B6C8419E
Точное извлечение (достоверность 2) [E3A5C31A] (AR v1)
Копирование... OK
Трек 2
Имя файла R:\Раздача 67\The Chipmunks - (1985) 1994 - Christmas With The Chipmunks\02 (All I Want for Christmas Is) My Two Front Teeth .wav
Длина предзазора 0:00:01.35
Пиковый уровень 95.0 %
Скорость извлечения 3.1 X
Качество трека 99.8 %
CRC теста F5264C00
CRC копии F5264C00
Точное извлечение (достоверность 2) [2CA694C0] (AR v1)
Копирование... OK
Трек 3
Имя файла R:\Раздача 67\The Chipmunks - (1985) 1994 - Christmas With The Chipmunks\03 Jingle Bells .wav
Длина предзазора 0:00:00.70
Пиковый уровень 95.0 %
Скорость извлечения 5.5 X
Качество трека 100.0 %
CRC теста 9F32FC34
CRC копии 9F32FC34
Точное извлечение (достоверность 2) [EC8219DC] (AR v1)
Копирование... OK
Трек 4
Имя файла R:\Раздача 67\The Chipmunks - (1985) 1994 - Christmas With The Chipmunks\04 Frosty the Snowman .wav
Длина предзазора 0:00:01.10
Пиковый уровень 96.4 %
Скорость извлечения 5.4 X
Качество трека 100.0 %
CRC теста 74140765
CRC копии 74140765
Точное извлечение (достоверность 2) [258A8DA3] (AR v1)
Копирование... OK
Трек 5
Имя файла R:\Раздача 67\The Chipmunks - (1985) 1994 - Christmas With The Chipmunks\05 Santa Claus Is Comin' to Town .wav
Длина предзазора 0:00:00.72
Пиковый уровень 94.7 %
Скорость извлечения 5.4 X
Качество трека 100.0 %
CRC теста B4748F21
CRC копии B4748F21
Точное извлечение (достоверность 2) [BED2982B] (AR v1)
Копирование... OK
Трек 6
Имя файла R:\Раздача 67\The Chipmunks - (1985) 1994 - Christmas With The Chipmunks\06 Rudolph, The Red-Nosed Reindeer .wav
Длина предзазора 0:00:00.67
Пиковый уровень 91.6 %
Скорость извлечения 6.1 X
Качество трека 100.0 %
CRC теста E421AF22
CRC копии E421AF22
Точное извлечение (достоверность 2) [633F11B8] (AR v1)
Копирование... OK
Трек 7
Имя файла R:\Раздача 67\The Chipmunks - (1985) 1994 - Christmas With The Chipmunks\07 The Night Before Christmas .wav
Длина предзазора 0:00:01.13
Пиковый уровень 100.0 %
Скорость извлечения 6.6 X
Качество трека 100.0 %
CRC теста 81B25234
CRC копии 81B25234
Точное извлечение (достоверность 2) [A11CABA5] (AR v1)
Копирование... OK
Трек 8
Имя файла R:\Раздача 67\The Chipmunks - (1985) 1994 - Christmas With The Chipmunks\08 Silver Bells .wav
Длина предзазора 0:00:00.73
Пиковый уровень 93.9 %
Скорость извлечения 6.5 X
Качество трека 100.0 %
CRC теста 391A74AD
CRC копии 391A74AD
Точное извлечение (достоверность 2) [B2AC8512] (AR v1)
Копирование... OK
Трек 9
Имя файла R:\Раздача 67\The Chipmunks - (1985) 1994 - Christmas With The Chipmunks\09 White Christmas .wav
Длина предзазора 0:00:01.00
Пиковый уровень 94.0 %
Скорость извлечения 6.8 X
Качество трека 100.0 %
CRC теста 2687FD6C
CRC копии 2687FD6C
Точное извлечение (достоверность 2) [07A065E2] (AR v1)
Копирование... OK
Трек 10
Имя файла R:\Раздача 67\The Chipmunks - (1985) 1994 - Christmas With The Chipmunks\10 We Wish You a Merry Christmas .wav
Длина предзазора 0:00:01.27
Пиковый уровень 94.0 %
Скорость извлечения 4.9 X
Качество трека 100.0 %
CRC теста 59A934DE
CRC копии 59A934DE
Точное извлечение (достоверность 2) [4AA6BB21] (AR v1)
Копирование... OK
Все треки извлечены точно
Ошибок не произошло
Конец отчёта
==== Контрольная сумма отчёта BD083201ADF0087613A35C6FEF29A1E9671764452C25B1905FEC054179D0E876 ====

Содержание индексной карты (.CUE)

REM GENRE Children's
REM DATE 1994
REM DISCID 80051A0A
REM COMMENT "ExactAudioCopy v1.0b3"
CATALOG 0000000000000
PERFORMER "Chipmunks, The"
TITLE "Christmas with the Chipmunks"
FILE "01 The Chipmunk Song (Christmas Don't Be Late) .wav" WAVE
TRACK 01 AUDIO
TITLE "The Chipmunk Song (Christmas Don't Be Late)"
PERFORMER "Chipmunks, The"
PREGAP 00:00:25
INDEX 01 00:00:00
TRACK 02 AUDIO
TITLE "(All I Want for Christmas Is) My Two Front Teeth"
PERFORMER "Chipmunks, The"
INDEX 00 02:21:30
FILE "02 (All I Want for Christmas Is) My Two Front Teeth .wav" WAVE
INDEX 01 00:00:00
TRACK 03 AUDIO
TITLE "Jingle Bells"
PERFORMER "Chipmunks, The"
INDEX 00 01:40:47
FILE "03 Jingle Bells .wav" WAVE
INDEX 01 00:00:00
TRACK 04 AUDIO
TITLE "Frosty the Snowman"
PERFORMER "Chipmunks, The"
INDEX 00 02:35:55
FILE "04 Frosty the Snowman .wav" WAVE
INDEX 01 00:00:00
TRACK 05 AUDIO
TITLE "Santa Claus Is Comin' to Town"
PERFORMER "Chipmunks, The"
INDEX 00 01:59:58
FILE "05 Santa Claus Is Comin' to Town .wav" WAVE
INDEX 01 00:00:00
TRACK 06 AUDIO
TITLE "Rudolph, The Red-Nosed Reindeer"
PERFORMER "Chipmunks, The"
INDEX 00 01:42:73
FILE "06 Rudolph, The Red-Nosed Reindeer .wav" WAVE
INDEX 01 00:00:00
TRACK 07 AUDIO
TITLE "The Night Before Christmas"
PERFORMER "Chipmunks, The"
INDEX 00 02:29:60
FILE "07 The Night Before Christmas .wav" WAVE
INDEX 01 00:00:00
TRACK 08 AUDIO
TITLE "Silver Bells"
PERFORMER "Chipmunks, The"
INDEX 00 03:00:67
FILE "08 Silver Bells .wav" WAVE
INDEX 01 00:00:00
TRACK 09 AUDIO
TITLE "White Christmas"
PERFORMER "Chipmunks, The"
INDEX 00 02:17:05
FILE "09 White Christmas .wav" WAVE
INDEX 01 00:00:00
TRACK 10 AUDIO
TITLE "We Wish You a Merry Christmas"
PERFORMER "Chipmunks, The"
INDEX 00 02:33:65
FILE "10 We Wish You a Merry Christmas .wav" WAVE
INDEX 01 00:00:00
[cybertorrent.ru].t56761.torrent 
Торрент: Зарегистрирован [ 2018-07-11 20:18 ] · BE24780ABFCA4DBB5E9A43F518B6148109E73353

Скачать .torrent

Скачать

12 KB

Статус: проверено
Скачан: 0 раз
Размер: 136 MB
Профиль [ЛС]
Показать сообщения:    

Текущее время: 18-Июл 04:55

Часовой пояс: UTC ± 0



Вы не можете начинать темы
Вы не можете отвечать на сообщения
Вы не можете редактировать свои сообщения
Вы не можете удалять свои сообщения
Вы не можете голосовать в опросах
Вы не можете прикреплять файлы к сообщениям
Вы можете скачивать файлы