BitTorrent клиенты



Eisbrecher • Rockpalast • Summer Breeze Festival [2018, Neue Deutsche Härte, HDTV, 720p]

Ответить на тему
Статистика раздачи
Размер:  4 GB   |    Зарегистрирован:  4 месяца 20 дней   |    Скачан:  0 раз

Полного источника не было: Никогда

 
   
 
 
Автор Сообщение

craft ®

Пол: Не указан

Стаж: 1 год

Сообщений: 727

Создавать темы 01-Окт-2018 16:02

[Цитировать]


Eisbrecher


Жанр: Neue Deutsche Härte
Продолжительность: 00:57:25
Год выпуска: 2018
Качество: HDTV
Разрешение видео/развертка: 720p
Контейнер: TS
Видео кодек: H.264
Аудио кодек: AC3
Видео: MPEG4 Video (H264) 1280x720 50fps 9 023 kb/s
Аудио: Dolby AC3 48000Hz stereo 448kbps

Треклист

01. Sturmfahrt
02. Das Gesetz
03. Fehler machen Leute
04. So oder so
05. Prototyp
06. Himmel, Arsch und Zwirn
07. Eiszeit
08. 1000 Narben
09. Was ist hier los?
10. This Is Deutsch
11. Verruckt
12. Miststuck

Отчёт MediaInfo / BDInfo

General
ID : 1 (0x1)
Complete name : E:\Eisbrecher - Summer Breeze Festival 2018.ts
Format : MPEG-TS
File size : 4.00 GiB
Duration : 57 min 25 s
Overall bit rate mode : Variable
Overall bit rate : 9 968 kb/s
Video
ID : 5501 (0x157D)
Menu ID : 1 (0x1)
Format : AVC
Format/Info : Advanced Video Codec
Format profile : High@L4
Format settings : CABAC / 4 Ref Frames
Format settings, CABAC : Yes
Format settings, ReFrames : 4 frames
Codec ID : 27
Duration : 57 min 25 s
Bit rate : 9 023 kb/s
Width : 1 280 pixels
Height : 720 pixels
Display aspect ratio : 16:9
Frame rate : 50.000 FPS
Color space : YUV
Chroma subsampling : 4:2:0
Bit depth : 8 bits
Scan type : Progressive
Bits/(Pixel*Frame) : 0.196
Stream size : 3.62 GiB (91%)
Audio
ID : 5506 (0x1582)
Menu ID : 1 (0x1)
Format : AC-3
Format/Info : Audio Coding 3
Commercial name : Dolby Digital
Codec ID : 6
Duration : 57 min 25 s
Bit rate mode : Constant
Bit rate : 448 kb/s
Channel(s) : 2 channels
Channel layout : L R
Sampling rate : 48.0 kHz
Frame rate : 31.250 FPS (1536 SPF)
Bit depth : 16 bits
Compression mode : Lossy
Stream size : 184 MiB (4%)
Language : German
Service kind : Complete Main
[cybertorrent.ru].t56828.torrent 
Торрент: Зарегистрирован [ 2018-10-01 16:05 ] · 8DDCCE6E7BF05F9602B7953E7D415BFA8969F24E

Скачать .torrent

Скачать

20 KB

Статус: проверено
Скачан: 0 раз
Размер: 4 GB
terms.php
[Профиль] [ЛС]
Показать сообщения:    
Ответить на тему

Текущее время: 22-Фев 03:11

Часовой пояс: UTC + 3



Вы не можете начинать темы
Вы не можете отвечать на сообщения
Вы не можете редактировать свои сообщения
Вы не можете удалять свои сообщения
Вы не можете голосовать в опросах
Вы не можете прикреплять файлы к сообщениям
Вы можете скачивать файлы