BitTorrent клиенты



Власть луны / Отмеченные луной / Moonstruck (Норман Джуисон / Norman Jewison) [1987, США, мелодрама, комедия, HDRip-AVC] MVO (СВ-Дубль) + MVO (Варус-Видео) + Sub Rus + Original Eng

Ответить на тему
Статистика раздачи
Размер:  2,13 GB   |    Зарегистрирован:  4 месяца 21 день   |    Скачан:  0 раз

Полного источника не было: Никогда

 
   
 
 
Автор Сообщение

ingiz ®

Пол: Не указан

Стаж: 1 год

Сообщений: 1731

Создавать темы 01-Окт-2018 16:02

[Цитировать]

Власть луны / Отмеченные луной / Moonstruck
Страна: США
Жанр: мелодрама, комедия
Год выпуска: 1987
Продолжительность: 01:41:55
Перевод: Профессиональный (многоголосый закадровый) СВ-Дубль
Перевод 2: Профессиональный (многоголосый закадровый) Варус-Видео
Субтитры: русские
Оригинальная аудиодорожка: английский
Режиссер: Норман Джуисон / Norman Jewison
В ролях: Шер, Николас Кейдж, Винсент Гардения, Олимпия Дукакис, Дэнни Айелло, Джули Бовассо, Джон Махони, Луис Гасс, Федор Шаляпин мл., Анита Джиллет
Описание: Когда над городом восходит полная Луна, странные вещи творятся с почтенным итальянским семейством в котором дочь накануне своего второго замужества вдруг понимает, что любит другого, отец неверен своей супруге, а за последней ухаживает посторонний мужчина. При свете дня все эти люди сохраняют благоразумие и владеют своими чувствами, однако с наступлением Луны ни за кого из них нельзя поручиться!
Доп. информация: Видео от Assassin's Creed http://rutracker.org/forum/viewtopic.php?t=3498044 (большое спасибо!). Оттуда же английская дорожка и субтитры.
Дорожка №1 - запись по DVB-C с тк "Культура" в сентябре 2018 года. Фильм озвучен студией "СВ-Дубль" по заказу ВГТРК. Впервые на трекере.
Дорожка №2 - оцифровка VHS отсюда http://rutracker.org/forum/viewtopic.php?t=5473610 (спасибо alenavova и edich2). Фильм озвучен на студии "Варус-Видео". Роли озвучивали Ольга Гаспарова, Виктор Петров, Валерий Сторожик.
Субтитры в переводе Аната Дворникова.
Сэмпл: https://yadi.sk/i/njM6ZjUNBnYhfw
Качество видео: HDRip-AVC
Формат видео: MKV
Видео: AVC; 1024x560 (1,85:1); ~2160 Kbps; 23,976 fps
Аудио: AC3, 2.0 ch., 48 kHz, 192 kbps - MVO СВ-Дубль
Аудио 2: AC3, 2.0 ch., 48 kHz, 192 kbps - MVO Варус-Видео
Аудио 3: AC3, 5.1 ch., 48 kHz, 448 kbps - English
Формат субтитров: softsub (SRT)

MediaInfo

Общее
Уникальный идентификатор : 1629929468225943027113764971553551908 (0x139E9BA2C095DC008CEC75C2540F624)
Полное имя : D:\Torrents\Moonstruck [1987 HDRip-AVC].mkv
Формат : Matroska
Версия формата : Version 4
Размер файла : 2,13 Гбайт
Продолжительность : 1 ч. 41 м.
Общий поток : 2994 Кбит/сек
Дата кодирования : UTC 2018-09-30 15:24:33
Программа кодирования : mkvmerge v19.0.0 ('Brave Captain') 32-bit
Библиотека кодирования : libebml v1.3.5 + libmatroska v1.4.8
Видео
Идентификатор : 1
Формат : AVC
Формат/Информация : Advanced Video Codec
Профиль формата : High@L3.1
Настройки формата : CABAC / 4 Ref Frames
Параметр CABAC формата : Да
Параметр RefFrames формата : 4 кадра
Идентификатор кодека : V_MPEG4/ISO/AVC
Продолжительность : 1 ч. 41 м.
Битрейт : 2160 Кбит/сек
Ширина : 1024 пикселя
Высота : 560 пикселей
Соотношение сторон : 1,85:1
Режим частоты кадров : Постоянный
Частота кадров : 23,976 кадра/сек
Цветовое пространство : YUV
Субдискретизация насыщенности : 4:2:0
Битовая глубина : 8 бит
Тип развёртки : Прогрессивная
Бит/(Пиксели*Кадры) : 0.157
Размер потока : 1,54 Гбайт (72%)
Библиотека кодирования : x264 core 112
Настройки программы : cabac=1 / ref=3 / deblock=1:0:0 / analyse=0x3:0x113 / me=hex / subme=7 / psy=1 / psy_rd=1.00:0.00 / mixed_ref=1 / me_range=16 / chroma_me=1 / trellis=1 / 8x8dct=1 / cqm=0 / deadzone=21,11 / fast_pskip=1 / chroma_qp_offset=-2 / threads=3 / sliced_threads=0 / nr=0 / decimate=1 / interlaced=0 / constrained_intra=0 / bframes=3 / b_pyramid=2 / b_adapt=1 / b_bias=0 / direct=1 / weightb=1 / open_gop=0 / weightp=2 / keyint=240 / keyint_min=23 / scenecut=40 / intra_refresh=0 / rc_lookahead=40 / rc=2pass / mbtree=1 / bitrate=2160 / ratetol=1.0 / qcomp=0.60 / qpmin=3 / qpmax=51 / qpstep=4 / cplxblur=20.0 / qblur=0.5 / ip_ratio=1.40 / aq=1:1.00
Язык : English
Default : Да
Forced : Нет
Цветовой диапазон : Limited
Основные цвета : BT.709
Характеристики трансфера : BT.709
Коэффициенты матрицы : BT.709
Аудио #1
Идентификатор : 2
Формат : AC-3
Формат/Информация : Audio Coding 3
Коммерческое название : Dolby Digital
Идентификатор кодека : A_AC3
Продолжительность : 1 ч. 41 м.
Вид битрейта : Постоянный
Битрейт : 192 Кбит/сек
Каналы : 2 канала
Channel layout : L R
Частота : 48,0 КГц
Частота кадров : 31,250 кадров/сек (1536 SPF)
Битовая глубина : 16 бит
Метод сжатия : С потерями
Размер потока : 140 Мбайт (6%)
Заголовок : MVO SV-Dubl
Язык : Russian
ServiceKind/String : Complete Main
Default : Да
Forced : Нет
Аудио #2
Идентификатор : 3
Формат : AC-3
Формат/Информация : Audio Coding 3
Коммерческое название : Dolby Digital
Идентификатор кодека : A_AC3
Продолжительность : 1 ч. 41 м.
Вид битрейта : Постоянный
Битрейт : 192 Кбит/сек
Каналы : 2 канала
Channel layout : L R
Частота : 48,0 КГц
Частота кадров : 31,250 кадров/сек (1536 SPF)
Битовая глубина : 16 бит
Метод сжатия : С потерями
Размер потока : 140 Мбайт (6%)
Заголовок : MVO Varus
Язык : Russian
ServiceKind/String : Complete Main
Default : Нет
Forced : Нет
Аудио #3
Идентификатор : 4
Формат : AC-3
Формат/Информация : Audio Coding 3
Коммерческое название : Dolby Digital
Идентификатор кодека : A_AC3
Продолжительность : 1 ч. 41 м.
Вид битрейта : Постоянный
Битрейт : 448 Кбит/сек
Каналы : 6 каналов
Channel layout : L R C LFE Ls Rs
Частота : 48,0 КГц
Частота кадров : 31,250 кадров/сек (1536 SPF)
Битовая глубина : 16 бит
Метод сжатия : С потерями
Размер потока : 327 Мбайт (15%)
Язык : English
ServiceKind/String : Complete Main
Default : Нет
Forced : Нет
Текст
Идентификатор : 5
Формат : UTF-8
Идентификатор кодека : S_TEXT/UTF8
Идентификатор кодека/Информация : UTF-8 Plain Text
Продолжительность : 1 ч. 37 м.
Битрейт : 90 бит/сек
ElementCount : 1084
Размер потока : 64,4 Кбайт (0%)
Язык : Russian
Default : Нет
Forced : Нет

Скриншот c названием фильма

Скриншоты

[cybertorrent.ru].t56829.torrent 
Торрент: Зарегистрирован [ 2018-10-01 16:05 ] · 8E0956DE0D5093BB8E092DBEA2F6453D1CD3DE65

Скачать .torrent

Скачать

11 KB

Статус: проверено
Скачан: 0 раз
Размер: 2,13 GB
terms.php
[Профиль] [ЛС]
Показать сообщения:    
Ответить на тему

Текущее время: 23-Фев 15:37

Часовой пояс: UTC + 3



Вы не можете начинать темы
Вы не можете отвечать на сообщения
Вы не можете редактировать свои сообщения
Вы не можете удалять свои сообщения
Вы не можете голосовать в опросах
Вы не можете прикреплять файлы к сообщениям
Вы можете скачивать файлы