BitTorrent клиенты



(Alternative Rock) [CD] Dorothy - 555 - (Girls On Stage - Since 2011) - 2016, FLAC (tracks+.cue), lossless

Ответить на тему
Статистика раздачи
Размер:  289 MB   |    Зарегистрирован:  4 месяца 22 дня   |    Скачан:  0 раз

Полного источника не было: Никогда

 
   
 
 
Автор Сообщение

mors ®

Пол: Не указан

Стаж: 11 месяцев 23 дня

Сообщений: 547

Создавать темы 01-Окт-2018 16:02

[Цитировать]

Dorothy / 555 - (Girls On Stage - Since 2011)(2016)
Жанр: Alternative Rock
Носитель: CD
Страна-производитель диска (релиза): Hungary
Год издания: 2016
Издатель (лейбл): EDGECD
Номер по каталогу: 247
Страна исполнителя (группы): Hungary
Аудиокодек: FLAC (*.flac)
Тип рипа: tracks+.cue
Битрейт аудио: lossless
Продолжительность: 00:33:20
Источник (релизер): Naftamusic
Наличие сканов в содержимом раздачи: да
Корректность рипа: В оригинале не было применено сжатие при конвертировании во Флак (FLAC Level 0). Для приведения в соответствие правилам пережато во FLAC Level 5 с сохранением тэгов

01 - Az igazi szenvedély (00:03:58)
02 - Nagy a baj! (00:03:44)
03 - Te vagy a szívverésem (00:03:37)
04 - Nekünk lett kitalálva (00:03:04)
05 - Girls On Stage (00:03:15)
06 - Hatodik emelet (Dorothy light) (00:02:59)
07 - Hozzád hasonló (Dorothy light) (00:03:26)
08 - Lélekevő (Dorothy light) (00:03:13)
09 - Ez a szerelem (Dorothy light) (00:02:28)
10 - Holnaptól (Dorothy light) (00:03:36)

Лог создания рипа

Exact Audio Copy V1.1 from 23. June 2015
EAC extraction logfile from 28. October 2016, 20:42
Dorothy / 555 (Girls On Stage - Since 2011)
Used drive : PLEXTOR DVDR PX-891SA Adapter: 1 ID: 0
Read mode : Secure
Utilize accurate stream : Yes
Defeat audio cache : Yes
Make use of C2 pointers : No
Read offset correction : 6
Overread into Lead-In and Lead-Out : No
Fill up missing offset samples with silence : Yes
Delete leading and trailing silent blocks : No
Null samples used in CRC calculations : Yes
Used interface : Native Win32 interface for Win NT & 2000
Gap handling : Appended to previous track
Used output format : User Defined Encoder
Selected bitrate : 1024 kBit/s
Quality : High
Add ID3 tag : No
Command line compressor : C:\Program Files (x86)\Exact Audio Copy\Flac\flac.exe
Additional command line options : -0 -V -T "ARTIST=%artist%" -T "TITLE=%title%" -T "ALBUM=%albumtitle%" -T "DATE=%year%" -T "TRACKNUMBER=%tracknr%" -T "TOTALTRACKS=%numtracks%" -T "GENRE=%genre%" -T "COMMENT=Naftamusic Release!" %source%
TOC of the extracted CD
Track | Start | Length | Start sector | End sector
---------------------------------------------------------
1 | 0:00.00 | 3:58.00 | 0 | 17849
2 | 3:58.00 | 3:44.37 | 17850 | 34686
3 | 7:42.37 | 3:37.00 | 34687 | 50961
4 | 11:19.37 | 3:03.38 | 50962 | 64724
5 | 14:23.00 | 3:15.00 | 64725 | 79349
6 | 17:38.00 | 2:59.00 | 79350 | 92774
7 | 20:37.00 | 3:26.00 | 92775 | 108224
8 | 24:03.00 | 3:13.00 | 108225 | 122699
9 | 27:16.00 | 2:28.37 | 122700 | 133836
10 | 29:44.37 | 3:35.38 | 133837 | 149999
Track 1
Filename E:\Nafta Releases\Dorothy - 555 (Girls On Stage - Since 2011) (2016)[FLAC] - Naftamusic\01 - Az igazi szenvedély.wav
Pre-gap length 0:00:02.00
Peak level 97.7 %
Extraction speed 1.9 X
Track quality 100.0 %
Test CRC 48E31B4A
Copy CRC 48E31B4A
Track not present in AccurateRip database
Copy OK
Track 2
Filename E:\Nafta Releases\Dorothy - 555 (Girls On Stage - Since 2011) (2016)[FLAC] - Naftamusic\02 - Nagy a baj!.wav
Peak level 97.8 %
Extraction speed 2.1 X
Track quality 100.0 %
Test CRC 1F63736B
Copy CRC 1F63736B
Track not present in AccurateRip database
Copy OK
Track 3
Filename E:\Nafta Releases\Dorothy - 555 (Girls On Stage - Since 2011) (2016)[FLAC] - Naftamusic\03 - Te vagy a szívverésem.wav
Peak level 97.7 %
Extraction speed 2.2 X
Track quality 100.0 %
Test CRC 88E3FB11
Copy CRC 88E3FB11
Track not present in AccurateRip database
Copy OK
Track 4
Filename E:\Nafta Releases\Dorothy - 555 (Girls On Stage - Since 2011) (2016)[FLAC] - Naftamusic\04 - Nekünk lett kitalálva.wav
Peak level 97.9 %
Extraction speed 2.3 X
Track quality 100.0 %
Test CRC 9CC0C4FD
Copy CRC 9CC0C4FD
Track not present in AccurateRip database
Copy OK
Track 5
Filename E:\Nafta Releases\Dorothy - 555 (Girls On Stage - Since 2011) (2016)[FLAC] - Naftamusic\05 - Girls On Stage.wav
Peak level 97.7 %
Extraction speed 2.5 X
Track quality 100.0 %
Test CRC 8A12B065
Copy CRC 8A12B065
Track not present in AccurateRip database
Copy OK
Track 6
Filename E:\Nafta Releases\Dorothy - 555 (Girls On Stage - Since 2011) (2016)[FLAC] - Naftamusic\06 - Hatodik emelet (Dorothy light).wav
Peak level 97.7 %
Extraction speed 2.6 X
Track quality 100.0 %
Test CRC B191FF29
Copy CRC B191FF29
Track not present in AccurateRip database
Copy OK
Track 7
Filename E:\Nafta Releases\Dorothy - 555 (Girls On Stage - Since 2011) (2016)[FLAC] - Naftamusic\07 - Hozzád hasonló (Dorothy light).wav
Peak level 97.7 %
Extraction speed 2.7 X
Track quality 100.0 %
Test CRC CFD596E0
Copy CRC CFD596E0
Track not present in AccurateRip database
Copy OK
Track 8
Filename E:\Nafta Releases\Dorothy - 555 (Girls On Stage - Since 2011) (2016)[FLAC] - Naftamusic\08 - Lélekevő (Dorothy light).wav
Peak level 97.7 %
Extraction speed 2.8 X
Track quality 100.0 %
Test CRC 4A0B97D5
Copy CRC 4A0B97D5
Track not present in AccurateRip database
Copy OK
Track 9
Filename E:\Nafta Releases\Dorothy - 555 (Girls On Stage - Since 2011) (2016)[FLAC] - Naftamusic\09 - Ez a szerelem (Dorothy light).wav
Peak level 97.8 %
Extraction speed 2.8 X
Track quality 100.0 %
Test CRC AD1CD9AB
Copy CRC AD1CD9AB
Track not present in AccurateRip database
Copy OK
Track 10
Filename E:\Nafta Releases\Dorothy - 555 (Girls On Stage - Since 2011) (2016)[FLAC] - Naftamusic\10 - Holnaptól (Dorothy light).wav
Peak level 97.7 %
Extraction speed 3.0 X
Track quality 100.0 %
Test CRC 78062DA3
Copy CRC 78062DA3
Track not present in AccurateRip database
Copy OK
None of the tracks are present in the AccurateRip database
No errors occurred
End of status report
==== Log checksum B96CE481BD8E4CA0C999D6D273B6FE5478ACA4FA1CF437F14077CF98C4D0BB5E ====

Содержание индексной карты (.CUE)

REM GENRE Rock
REM DATE 2016
REM DISCID 8407D00A
REM COMMENT "ExactAudioCopy v1.1"
PERFORMER "Dorothy"
TITLE "555 (Girls On Stage - Since 2011)"
FILE "01 - Az igazi szenvedély.wav" WAVE
TRACK 01 AUDIO
TITLE "Az igazi szenvedély"
PERFORMER "Dorothy"
INDEX 01 00:00:00
FILE "02 - Nagy a baj!.wav" WAVE
TRACK 02 AUDIO
TITLE "Nagy a baj!"
PERFORMER "Dorothy"
INDEX 01 00:00:00
FILE "03 - Te vagy a szívverésem.wav" WAVE
TRACK 03 AUDIO
TITLE "Te vagy a szívverésem"
PERFORMER "Dorothy"
INDEX 01 00:00:00
FILE "04 - Nekünk lett kitalálva.wav" WAVE
TRACK 04 AUDIO
TITLE "Nekünk lett kitalálva"
PERFORMER "Dorothy"
INDEX 01 00:00:00
FILE "05 - Girls On Stage.wav" WAVE
TRACK 05 AUDIO
TITLE "Girls On Stage"
PERFORMER "Dorothy"
INDEX 01 00:00:00
FILE "06 - Hatodik emelet (Dorothy light).wav" WAVE
TRACK 06 AUDIO
TITLE "Hatodik emelet (Dorothy light)"
PERFORMER "Dorothy"
INDEX 01 00:00:00
FILE "07 - Hozzád hasonló (Dorothy light).wav" WAVE
TRACK 07 AUDIO
TITLE "Hozzád hasonló (Dorothy light)"
PERFORMER "Dorothy"
INDEX 01 00:00:00
FILE "08 - Lélekevő (Dorothy light).wav" WAVE
TRACK 08 AUDIO
TITLE "Lélekevő (Dorothy light)"
PERFORMER "Dorothy"
INDEX 01 00:00:00
FILE "09 - Ez a szerelem (Dorothy light).wav" WAVE
TRACK 09 AUDIO
TITLE "Ez a szerelem (Dorothy light)"
PERFORMER "Dorothy"
INDEX 01 00:00:00
FILE "10 - Holnaptól (Dorothy light).wav" WAVE
TRACK 10 AUDIO
TITLE "Holnaptól (Dorothy light)"
PERFORMER "Dorothy"
INDEX 01 00:00:00

Лог проверки качества

Скриншот спектра частот

Лог DRM

foobar2000 1.2.2 / Dynamic Range Meter 1.1.1
log date: 2016-10-28 21:02:11
--------------------------------------------------------------------------------
Analyzed: Dorothy / 555 (Girls On Stage - Since 2011)
--------------------------------------------------------------------------------
DR Peak RMS Duration Track
--------------------------------------------------------------------------------
DR5 -0.20 dB -6.21 dB 3:58 01-Az igazi szenvedély
DR5 -0.19 dB -5.66 dB 3:44 02-Nagy a baj!
DR5 -0.19 dB -6.63 dB 3:37 03-Te vagy a szívverésem
DR5 -0.18 dB -6.20 dB 3:04 04-Nekünk lett kitalálva
DR5 -0.20 dB -5.64 dB 3:15 05-Girls On Stage
DR9 -0.19 dB -10.51 dB 2:59 06-Hatodik emelet (Dorothy light)
DR6 -0.20 dB -7.94 dB 3:26 07-Hozzád hasonló (Dorothy light)
DR6 -0.20 dB -6.97 dB 3:13 08-Lélekevő (Dorothy light)
DR11 -0.19 dB -12.31 dB 2:28 09-Ez a szerelem (Dorothy light)
DR5 -0.20 dB -7.02 dB 3:36 10-Holnaptól (Dorothy light)
--------------------------------------------------------------------------------
Number of tracks: 10
Official DR value: DR6
Samplerate: 44100 Hz
Channels: 2
Bits per sample: 16
Bitrate: 1088 kbps
Codec: FLAC
================================================================================

Об исполнителе (группе)

Gere Dorottya „Dodo” - ének/basszusgitár
Blahó Brigitta „Brigi” - gitár/vokál
Kovács Klaudia „Klo” - dobok

Об альбоме (сборнике)

A pörgős, punkos, rockos muzsikát játszó gyöngyösi csajtrió Dorothy új lemeze, ami egy különleges anyag - 5 éves a zenekar, 5 teljesen új dal, 5 dal új köntösben.
[cybertorrent.ru].t56831.torrent 
Торрент: Зарегистрирован [ 2018-10-01 16:05 ] · 35AB19BE93CD76D3B9E36A264CE563CDDF763EF3

Скачать .torrent

Скачать

13 KB

Статус: проверено
Скачан: 0 раз
Размер: 289 MB
terms.php
[Профиль] [ЛС]
Показать сообщения:    
Ответить на тему

Текущее время: 23-Фев 16:32

Часовой пояс: UTC + 3



Вы не можете начинать темы
Вы не можете отвечать на сообщения
Вы не можете редактировать свои сообщения
Вы не можете удалять свои сообщения
Вы не можете голосовать в опросах
Вы не можете прикреплять файлы к сообщениям
Вы можете скачивать файлы