BitTorrent клиенты



Жили-были американцы / Il Etait Une Fois... Les Ameriques / Серии 0-3,5,7,9-12,14-18,21-26 (26) (Альбер Барилье / Albert Barillé) [1991, Мультипликационный, познавательный, DVDRip]

Ответить на тему
Статистика раздачи
Размер:  7,74 GB   |    Зарегистрирован:  1 год   |    Скачан:  0 раз

Полного источника не было: Никогда

 
   
 
 
Автор Сообщение

Zlo ®

Пол: Не указан

Стаж: 1 год

Сообщений: 648

Создавать темы 12-Фев-2018 14:19

[Цитировать]

Жили-были американцы / Il Etait Une Fois... Les Ameriques
Страна: Франция
Тематика: Познавательный, мультипликационный, познавательный, приключения
Серии (количество): 26
Продолжительность: 26 x ~ 00:26:30
Год выпуска: 1991
Русские субтитры: нет
Перевод: Дубляж (Лексикон) / Одноголосый закадровый (Александр Середа)
Режиссёр: Альбер Барилье
Роли озвучивали: Роже Карель, Энни Балестра, Ален Дорваль, Винсент Ропион, Заира Бенбабис, Жилль Лорен, Франсис Лакс, Хосе Люссьони, Джозеф Мейнред, Сади Реббо, Фредерик Витта
Раздача по мере добавления серий
17.08.2011 г. Торрент перезалит.Добавлена 16-я серия
18.08.2011 г. Торрент перезалит.Добавлена 18-я серия и исправлена 10-я
22.08.2011 г. Торрент перезалит.Добавлена 17-я серия
28.08.2011 г. Торрент перезалит.Добавлены 21-26-е серии
Спасибо александр__ш.
Описание: Сериал "Жили-были Америки" - продолжение мультипликационного сериала «Жили-были...».В этой серии, предназначенной для детей, рассказывается об истории американского континента и всех групп населения (эскимосов, ацтеков, инков),а также исторических событиях (Дикий Запад, Война за независимость).Во Франции было выпущено семь детских мультсериалов, несущих познавательный и развивающий характер
Список серий:
00. Интро
01. Первые американцы
02. Охотники
03. Покорители Севера

04. Земля обетованная
05. Строители курганов
06. Ацтеки до завоевания
07. Мечта Христофора Колумба
08. Америка!
09. Кортес и ацтеки
10. Да здравствует Мексика
11. Писарро и инки
12. Жак Картье

13. Конкистадоры.Взлёты и падения
14. Шамплен
15. Англия и тринадцать колоний
16. Индейцы в семнадцатом веке
17. Индейцы в восемнадцатом веке
18. Конец французской мечты

19. 13 колоний в борьбе за независимость
20. Война за независимость
21. Торговля рабами
22. Пионеры Запада
23. Симон Боливар
24. Золотая лихорадка
25. Конец индейской цивилизации
26. Америка, Америка!

Ссылка на предыдущие и альтернативные раздачи:http://rutracker.org/forum/viewtopic.php?p=46573203#46573203 http://rutracker.org/forum/viewtopic.php?t=3149833
Семпл: http://multi-up.com/532270
Релиз:
Качество : DVDRip
Формат: mkv
Видео: x264, ~ 1400 Кбит/с, 704x536
Аудио 1: Русский (Дубляж Лексикон) (АС3, 2 ch, 160 Кбит/с)
Аудио 2: Украинский (1-2 серии) (AC3, 2 ch, 160 Кбит/с)
Аудио 3: Русский (Одноголосый А.Середа)(1 серия) (AC3, 2 ch, 192 Кбит/с)
Аудио 4: Французский (AC3, 2 ch, 160 Кбит/с)
Аудио 5: Английский (AC3, 2 ch, 160 Кбит/с)
Аудио 6: Польский (AC3, 2 ch, 128 Кбит/с)
Аудио 7: Голландский (AC3, 2 ch, 128 Кбит/с)
Субтитры: отсутствуют

Работа с .mkv

Формат .mkv - на старых ДВД не воспроизводится.Нужен медиаплеер,блюрей или плоский ТВ с поддержкой воспроизведения с флэшки.
Если кому-то нужно распаковать mkv,то скачиваем небольшой архивчик Работа с mkv 4.7.Устанавливаем програмку mkvtoolnix,бросаем в папку с установленным mkvtoolnix (C:Program Files/MKVtoolnix) файлик MKVExtractGUI2.exe.Запускаем его.Вводим наш видеофайл.Выбираем нужные нам дорожки.Нажимаем Extract.Через пару секунд получаем распакованный контейнер.Видео,аудиодорожки и субтитры по-отдельности.
Удаление ненужных дорожек для экономии места займет всего пару секунд.Программка mkvtoolnix 4.7,бросаем в нее наш файл,снимаем галочки с ненужных дорожек,нажимаем Начать обработку.Через пару секунд получаем облегченную версию.Говорим спасибо...

Скриншоты


Доп. информация

Формат .mkv - на старых ДВД не воспроизводится.Нужен медиаплеер,блюрей или плоский ТВ с поддержкой воспроизведения с флэшки.
Если кому-то нужно распаковать mkv,то скачиваем небольшой архивчик Работа с mkv 4.7.Устанавливаем програмку mkvtoolnix,бросаем в папку с установленным mkvtoolnix (C:Program Files/MKVtoolnix) файлик MKVExtractGUI2.exe.Запускаем его.Вводим наш видеофайл.Выбираем нужные нам дорожки.Нажимаем Extract.Через пару секунд получаем распакованный контейнер.Видео,аудиодорожки и субтитры по-отдельности.
Удаление ненужных дорожек для экономии места займет всего пару секунд.Программка mkvtoolnix 4.7,бросаем в нее наш файл,снимаем галочки с ненужных дорожек,нажимаем Начать обработку.Через пару секунд получаем облегченную версию.Говорим спасибо...
У кого неразбериха со звуком - слышны все дорожки сразу - замените встроенный в Windows проигрыватель,например на Media Player Classic ИЛИ обновите K-Lite Codec Pack или запишите на диск и спокойно смотрите на любом ДВД,поддерживающем МР4
Персонажи:
Маэстро(Maestro) - символ целой серии "Однажды ...". С длинной белой бородой, которая охватывает все его тело. Это великий ученый и дед Пьерротa.
Пьер(Pierre) - главный герой. Как правило, имеет длинные волосы. Он любит инновации.
Пьеррет(Pierrette) - жена Пьера. Она любит своего сына.
Пьерро(Pierrot) - сын Пьера и Пьеррет. Очень остроумный. Он проводит много времени со своим дедушкой Маэстро.
Пьерретта - дочь Пьера и Пьеррет.Любит моду. Немного плаксива.
Пси(Psi)-появляется позднее.Очень красивая темно-волосая девушка,показана в основном как подруга или жена Пьера.
Силач(le Gros)(потом Джамбо) - друг или брат Пьера. Это самый сильный человек в мире.Очень не любит Wredniaka и Конус. Он часто защищает Пьера, Пьеретт(и Psi в продолжениях) от хулиганов.
Жена Силача - Очень интеллигентна и рассудительна.Подружка Пьеррет
Толстячок(Petit Gros) - сын Силача.Друг Пьеррота
Вредитель(le Teigneux) - эгоистичным и злой человек, который всегда представляет лукавого. У него красный (позднее оранжевый)кругляком нос.Консерватор как в области
технологий, а также политики.
Подлый - сын Вредителя. Он появляется в нескольких эпизодах.
Карлик(le Nabot) - низенький и жадный слуга Вредителя. У него оранжевый нос в виде хот-дога.Консервативный как в области технологий,так и политики.
Лилипут - сын Карлика. Он похож на своего отца, только меньше
Отвратительный - Вредителя отец. Появляется в эпизоде Первых империй.
Сайт http://www.procidis.com/index.php?composant=com_heros&element=2&template=liste

Подробные технические данные

Общее
Уникальный идентификатор : 252058263466524462662114417435548517321 (0xBDA0A7DE2FAC245487DB12A7675303C9)
Полное имя : E:\Zhili-byli.amerikantsy.(1-26.serii.iz.26).1991.x264.DVDRip.Reliz.Kinozal.TV\Zhili-byli.amerikantsy.(01.serija.iz.26).Pervije.Amerikantsi.1991.x264.DVDRip.mkv
Формат : Matroska
Версия формата : Version 2
Размер файла : 465 Мбайт
Продолжительность : 28 м.
Общий поток : 2299 Кбит/сек
Название фильма : Жили-были Американцы 01x26 (Первые американцы) 1991 (by A.Sereda,2011)
Дата кодирования : UTC 2011-08-02 19:37:11
Программа кодирования : mkvmerge v4.9.1 ('Ich will') сборка от Jul 19 2011 15:46:37
Библиотека кодирования : libebml v1.2.1 + libmatroska v1.2.0
Видео
Идентификатор : 1
Формат : AVC
Формат/Информация : Advanced Video Codec
Профиль формата : High@L4.1
Параметр CABAC формата : Да
Параметр ReFrames формата : 8 кадров
Параметры GOP формата : M=1, N=2
Идентификатор кодека : V_MPEG4/ISO/AVC
Продолжительность : 28 м.
Битрейт : 1400 Кбит/сек
Ширина : 704 пикс.
Высота : 536 пикс.
Соотношение сторон : 4:3
Частота кадров : 25,000 кадр/сек
Цветовое пространство : YUV
Подвыборка цветности : 4:2:0
Битовая глубина : 8 бит
Тип развёртки : Прогрессивная
Бит/(Пиксели*Кадры) : 0.148
Размер потока : 275 Мбайт (59%)
Заголовок : Il Etait Une Fois... Les Ameriques
Библиотека кодирования : x264 core 115 r2008 4c552d8
Настройки программы : cabac=1 / ref=8 / deblock=1:-2:-1 / analyse=0x3:0x133 / me=umh / subme=10 / psy=1 / psy_rd=1.00:0.20 / mixed_ref=1 / me_range=24 / chroma_me=1 / trellis=2 / 8x8dct=1 / cqm=0 / deadzone=21,11 / fast_pskip=1 / chroma_qp_offset=-3 / threads=6 / sliced_threads=0 / nr=0 / decimate=0 / interlaced=0 / bluray_compat=0 / constrained_intra=0 / bframes=8 / b_pyramid=2 / b_adapt=2 / b_bias=0 / direct=3 / weightb=1 / open_gop=0 / weightp=2 / keyint=210 / keyint_min=21 / scenecut=40 / intra_refresh=0 / rc_lookahead=60 / rc=2pass / mbtree=1 / bitrate=1400 / ratetol=1.0 / qcomp=0.50 / qpmin=0 / qpmax=69 / qpstep=4 / cplxblur=20.0 / qblur=0.5 / vbv_maxrate=50000 / vbv_bufsize=50000 / nal_hrd=none / ip_ratio=1.40 / aq=1:1.00
Язык : French
Аудио #1
Идентификатор : 2
Формат : AC-3
Формат/Информация : Audio Coding 3
Расширение режима : CM (complete main)
Идентификатор кодека : A_AC3
Продолжительность : 28 м.
Вид битрейта : Постоянный
Битрейт : 160 Кбит/сек
Каналы : 2 канала
Расположение каналов : Front: L R
Частота : 48,0 КГц
Битовая глубина : 16 бит
Метод сжатия : С потерями
Размер потока : 32,4 Мбайт (7%)
Заголовок : Русский Дубляж (Лексикон)
Язык : Russian
Аудио #2
Идентификатор : 3
Формат : AC-3
Формат/Информация : Audio Coding 3
Расширение режима : CM (complete main)
Идентификатор кодека : A_AC3
Продолжительность : 28 м.
Вид битрейта : Постоянный
Битрейт : 160 Кбит/сек
Каналы : 2 канала
Расположение каналов : Front: L R
Частота : 48,0 КГц
Битовая глубина : 16 бит
Метод сжатия : С потерями
Размер потока : 32,4 Мбайт (7%)
Заголовок : Украинский
Язык : Ukrainian
Аудио #3
Идентификатор : 4
Формат : AC-3
Формат/Информация : Audio Coding 3
Расширение режима : CM (complete main)
Идентификатор кодека : A_AC3
Продолжительность : 28 м.
Вид битрейта : Постоянный
Битрейт : 160 Кбит/сек
Каналы : 2 канала
Расположение каналов : Front: L R
Частота : 48,0 КГц
Битовая глубина : 16 бит
Метод сжатия : С потерями
Размер потока : 32,4 Мбайт (7%)
Заголовок : Русский (А.Середа) Одноголосый
Язык : Russian
Аудио #4
Идентификатор : 5
Формат : AC-3
Формат/Информация : Audio Coding 3
Расширение режима : CM (complete main)
Идентификатор кодека : A_AC3
Продолжительность : 28 м.
Вид битрейта : Постоянный
Битрейт : 160 Кбит/сек
Каналы : 2 канала
Расположение каналов : Front: L R
Частота : 48,0 КГц
Битовая глубина : 16 бит
Метод сжатия : С потерями
Размер потока : 32,4 Мбайт (7%)
Заголовок : French 2ch 160kb/s
Язык : French
Аудио #5
Идентификатор : 6
Формат : AC-3
Формат/Информация : Audio Coding 3
Расширение режима : CM (complete main)
Идентификатор кодека : A_AC3
Продолжительность : 28 м.
Вид битрейта : Постоянный
Битрейт : 128 Кбит/сек
Каналы : 2 канала
Расположение каналов : Front: L R
Частота : 48,0 КГц
Битовая глубина : 16 бит
Метод сжатия : С потерями
Размер потока : 25,9 Мбайт (6%)
Заголовок : English 2ch 128kb/s
Язык : English
Аудио #6
Идентификатор : 7
Формат : AC-3
Формат/Информация : Audio Coding 3
Расширение режима : CM (complete main)
Идентификатор кодека : A_AC3
Продолжительность : 28 м.
Вид битрейта : Постоянный
Битрейт : 128 Кбит/сек
Каналы : 2 канала
Расположение каналов : Front: L R
Частота : 48,0 КГц
Битовая глубина : 16 бит
Метод сжатия : С потерями
Размер потока : 25,9 Мбайт (6%)
Заголовок : Polish
Язык : Polish
Текст
Идентификатор : 8
Формат : UTF-8
Идентификатор кодека : S_TEXT/UTF8
Идентификатор кодека/Информация : UTF-8 Plain Text
Заголовок : Русский (Александр Середа)
Язык : Russian
[cybertorrent.ru].t6206.torrent 
Торрент: Зарегистрирован [ 2018-02-12 14:22 ] · 654041BA5A7C735A732B73E805074CEDB0991C4A

Скачать .torrent

Скачать

158 KB

Статус: проверено
Скачан: 0 раз
Размер: 7,74 GB
terms.php
[Профиль] [ЛС]
Показать сообщения:    
Ответить на тему

Текущее время: 17-Фев 08:40

Часовой пояс: UTC + 3



Вы не можете начинать темы
Вы не можете отвечать на сообщения
Вы не можете редактировать свои сообщения
Вы не можете удалять свои сообщения
Вы не можете голосовать в опросах
Вы не можете прикреплять файлы к сообщениям
Вы можете скачивать файлы