BitTorrent клиенты



Декстер / Dexter / Сезон: 6 / Серии: 1-12 (12) (Майкл Куэста) [2011, США, драма, HDTVRip 400p] MVO (LostFilm)

Ответить на тему
Статистика раздачи
Размер:  10,35 GB   |    Зарегистрирован:  1 год   |    Скачан:  0 раз

Полного источника не было: Никогда

 
   
 
 
Автор Сообщение

craft ®

Пол: Не указан

Стаж: 1 год

Сообщений: 727

Создавать темы 12-Фев-2018 14:19

[Цитировать]

Декстер / Dexter
Год выпуска: 2011
Страна: США
Жанр: драма
Перевод: Профессиональный многоголосый закадровый(LostFilm)
Продолжительность: ~52 мин
Режиссер: Майкл Куэста / Michael Cuesta, Тони Голдуин / Tony Goldwy, Кейт Гордон / Keith Gordon
Субтитры: рус, англ
-В ролях:
Майкл Холл (Michael C. Hall), Дженифер Карпентер (Jennifer Carpenter), Лорен Велез (Lauren Vélez), Джеймс Ремар (James Remar), С.К. Ли (C.S. Lee) и др.

Описание:
Дом в пригороде, любящая жена, трое детей... хронический недосып, проваленное дело в суде, жажда убийства, агент Лэнди, вернувшийся в Майами и загадочный маньяк, убивающий вот уже тридцать лет - будни Декстера Моргана становятся все более насыщенными и разнообразными.
Можно ли удержаться на грани, если в одной руке у тебя разделочный нож, а в другой - памперс? Удастся ли прислушаться к Темному Попутчику, если в ушах постоянно звучит детский плач? И кем, в конечном итоге, сложнее быть - обычным человеком или маньяком-убийцей?-Качество: HDTVRip
Формат: AVI
Видео: 720x400 (1.80:1), 23.976 fps, XviD MPEG-4 ~1999 kbps avg, 0.29 bit/pixel
Аудио Rus: 48 kHz, AC3 Dolby Digital, 2/0 (L,R) ch, ~192 kbps
Аудио Eng: 48 kHz, AC3 Dolby Digital, 2/0 (L,R) ch, ~192 kbps
-Озвучка: Студия "Кравец"
Рип: ЛП
- -Все раздачи сериала-

MI

General
Complete name : H:\Фтп 3\Work\LostFilm\Dexter Season 6 LostFilm\Dexter.s06e01.rus.eng.avi
Format : AVI
Format/Info : Audio Video Interleave
File size : 943 MiB
Duration : 54mn 58s
Overall bit rate : 2 398 Kbps
Writing application : VirtualDubMod 1.5.10.2 (build 2540/release)
Writing library : VirtualDubMod build 2540/release
Video
ID : 0
Format : MPEG-4 Visual
Format profile : Advanced Simple@L5
Format settings, BVOP : Yes
Format settings, QPel : No
Format settings, GMC : No warppoints
Format settings, Matrix : Default (MPEG)
Codec ID : XVID
Codec ID/Hint : XviD
Duration : 54mn 58s
Bit rate : 2 000 Kbps
Width : 720 pixels
Height : 400 pixels
Display aspect ratio : 16:9
Frame rate : 23.976 fps
Color space : YUV
Chroma subsampling : 4:2:0
Bit depth : 8 bits
Scan type : Progressive
Bits/(Pixel*Frame) : 0.290
Stream size : 786 MiB (83%)
Writing library : XviD 64
Audio #1
ID : 1
Format : AC-3
Format/Info : Audio Coding 3
Mode extension : CM (complete main)
Codec ID : 2000
Duration : 54mn 57s
Bit rate mode : Constant
Bit rate : 192 Kbps
Channel(s) : 2 channels
Channel positions : Front: L R
Sampling rate : 48.0 KHz
Bit depth : 16 bits
Stream size : 75.5 MiB (8%)
Alignment : Split accross interleaves
Interleave, duration : 42 ms (1.00 video frame)
Interleave, preload duration : 500 ms
Audio #2
ID : 2
Format : AC-3
Format/Info : Audio Coding 3
Mode extension : CM (complete main)
Codec ID : 2000
Duration : 54mn 57s
Bit rate mode : Constant
Bit rate : 192 Kbps
Channel(s) : 2 channels
Channel positions : Front: L R
Sampling rate : 48.0 KHz
Bit depth : 16 bits
Stream size : 75.5 MiB (8%)
Alignment : Split accross interleaves
Interleave, duration : 42 ms (1.00 video frame)
Interleave, preload duration : 500 ms

Список серий

  • Вопросы веры (Those Kinds of Things)
  • Сказки на ночь (Once Upon a Time...)
  • Полицейский и бандит (Smokey and the Bandit)
  • Лошадь другой масти (A Horse of a Different Color)
  • Ангел смерти (The Angel of Death)
  • Выпустить тьму (Just Let Go)
  • Небраска (Nebraska)
  • Грех недеяния (Sins of Omission)
  • Неуловимый Геллар (Get Gellar)
  • Кролик-рикошет (Ricochet Rabbit)
  • Спасительная рука (Talk to the Hand)
  • И настал конец света (This Is the Way the World Ends)
  • Скриншоты

    Внимание! Раздача ведётся путём добавления новых серий!

    Внимание! Раздача ведётся путём добавления новых серий; при каждом добавлении создётся новый торрент. Чтобы начать докачку новой серии, пользователям необходимо сделать следующее: (1) остановить скачивание, (2) удалить старый торрент у себя из клиента (старые серии удалять не надо), (3) скачать новый торрент и запустить его у себя в клиенте вместо старого, при этом указать клиенту путь в старую папку куда и должно происходить скачивание новых серий.
    Ваш клиент при этом должен произвести хеширование (проверку) старой папки (если не производит сам - помогите ему сделать это), и будет докачивать только те серии которых у вас ещё нет. Старые серии при этом не удаляются, а продолжают раздаваться!
    Eсли вы уже удалили старые серии, то предотвратить повторную закачку старых серий можно, отжав галочку в соответсвующих местах при запуске нового торрента.
    Как закачать отдельный файл из торрента или докачать ранее пропущенные файлы торрента!
    [cybertorrent.ru].t6226.torrent 
    Торрент: Зарегистрирован [ 2018-02-12 14:22 ] · 952E81ACB874A9A128BB074EC4CE864FE3E4E922

    Скачать .torrent

    Скачать

    29 KB

    Статус: проверено
    Скачан: 0 раз
    Размер: 10,35 GB
    terms.php
    [Профиль] [ЛС]
    Показать сообщения:    
    Ответить на тему

    Текущее время: 17-Фев 09:15

    Часовой пояс: UTC + 3



    Вы не можете начинать темы
    Вы не можете отвечать на сообщения
    Вы не можете редактировать свои сообщения
    Вы не можете удалять свои сообщения
    Вы не можете голосовать в опросах
    Вы не можете прикреплять файлы к сообщениям
    Вы можете скачивать файлы