BitTorrent клиенты



Декстер / Dexter / Сезон: 3 / Серии: 12 из 12 (Маркос Сига, Кит Гордон, Стив Шилл) [2008, США, триллер, драма, криминал, детектив, BDRip] NovaFilm

Ответить на тему
Статистика раздачи
Размер:  5,43 GB   |    Зарегистрирован:  1 год   |    Скачан:  0 раз

Полного источника не было: Никогда

 
   
 
 
Автор Сообщение

craft ®

Пол: Не указан

Стаж: 1 год

Сообщений: 727

Создавать темы 14-Фев-2018 23:32

[Цитировать]

Декстер / DexterВнимание! В сериале присутствует ненормативная лексика!-[1 сезон] | [2 сезон] | [3 сезон] | [4 сезон] | [5 сезон]закрыто | [6 сезон]закрыто | [7 сезон]
Кому нужны 5-й и 6-й сезоны - пишите в личку
8-го сезона в озвучке Новы не будет, т.к. они отказались его озвучивать- Год выпуска: 2008
Страна: США
Жанр: триллер, драма, криминал, детектив
Продолжительность: ~50 минут
Перевод и озвучка: -Режиссёр: Маркос Сига, Кит Гордон, Стив Шилл
В ролях: Майкл Холл, Джули Бенц, Дженифер Карпентер, Эрик Кинг, Лорен Велез, Дэвид Зайяс, Джеймс Ремар, Кристина Робинсон, Дэниэл Голдман-Описание: Продолжение истории самого главного убийцы Америки Декстера Моргана. Он все так же умен, расчетлив и хладнокровен. Он по-прежнему придерживается своего кодекса о том, что не должны пострадать невинные люди. Однако, потенциальные жертвы Декстера также становятся все опаснее и изворотливее.-Качество: BDRip
Формат: AVI
Видео кодек: XviD
Аудио кодек: AC3
Видео: Xvid 720x400 23.97fps 1 095 Kbps bit/pixel: 0.159
Аудио: Dolby AC3 48000Hz stereo 128kbps 2 канала-Ссылка на предыдущие и альтернативные раздачи
Сэмпл-

Особенность раздачи

Данная раздача создана для тех, у кого не слишком большой жесткий диск. Одна звуковая дорожка.

Список серий

03x01 - Отче наш (Our Father)
03x02 - В поисках Фрибо (Finding Freebo)
03x03 - Лев сегодня спит (The Lion Sleeps Tonight)
03x04 - Дела Семейные (All In The Family)
03x05 - Курс на Бимини (Turning Biminese)
03x06 - ...или право имею? (Si se puede)
03x07 - Идеальный Пирог (Easy as Pie)
03x08 - И грянул гром (The Damage a Man Can Do)
03x09 - Кстати, о вчерашней ночи (About Last Night)
03x10 - Иди своей дорогой (Go Your Own Way)
03x11 - Мне снился сон (I Had a Dream)
03x12 - Декстер, как он есть (Do you take Dexter Morgan?)

Скриншоты



MediaInfo

General
Complete name : E:\tora\Сериалы\Dexter\Dexter 3 - NovaFilm MINI (by Lutini)\Dexter.s03e01.NovaFilm.avi
Format : AVI
Format/Info : Audio Video Interleave
File size : 511 MiB
Duration : 57mn 57s
Overall bit rate : 1 234 Kbps
Writing application : Lavf52.93.0
Video
ID : 0
Format : xvid
Codec ID : xvid
Duration : 57mn 56s
Bit rate : 1 095 Kbps
Width : 720 pixels
Height : 400 pixels
Display aspect ratio : 16:9
Frame rate : 23.976 fps
Bits/(Pixel*Frame) : 0.159
Stream size : 454 MiB (89%)
Audio
ID : 1
Format : AC-3
Format/Info : Audio Coding 3
Mode extension : CM (complete main)
Format settings, Endianness : Big
Codec ID : 2000
Duration : 57mn 57s
Bit rate mode : Constant
Bit rate : 128 Kbps
Channel(s) : 2 channels
Channel positions : Front: L R
Sampling rate : 48.0 KHz
Bit depth : 16 bits
Compression mode : Lossy
Stream size : 53.1 MiB (10%)
Alignment : Aligned on interleaves
Interleave, duration : 32 ms (0.77 video frame)
Interleave, preload duration : 32 ms
Title : NovaFilm
[cybertorrent.ru].t6389.torrent 
Торрент: Зарегистрирован [ 2018-02-14 23:39 ] · E2A4EDF2F49B4C53F46504A24F202F23B067E64A

Скачать .torrent

Скачать

15 KB

Статус: проверено
Скачан: 0 раз
Размер: 5,43 GB
terms.php
[Профиль] [ЛС]
Показать сообщения:    
Ответить на тему

Текущее время: 17-Фев 08:17

Часовой пояс: UTC + 3



Вы не можете начинать темы
Вы не можете отвечать на сообщения
Вы не можете редактировать свои сообщения
Вы не можете удалять свои сообщения
Вы не можете голосовать в опросах
Вы не можете прикреплять файлы к сообщениям
Вы можете скачивать файлы