BitTorrent клиенты



(Детская музыка) Baby Boom Мелодии планеты детства - 2007, FLAC (image+.cue), lossless

Ответить на тему
Статистика раздачи
Размер:  574 MB   |    Зарегистрирован:  1 год   |    Скачан:  0 раз

Полного источника не было: Никогда

 
   
 
 
Автор Сообщение

Вектор ®

Пол: Не указан

Стаж: 1 год

Сообщений: 4096

Создавать темы 15-Фев-2018 02:24

[Цитировать]

Baby Boom Мелодии планеты детства
Жанр: Детская музыка
Год выпуска диска: 2007
Производитель диска: Россия, Монолит-рекордс
Аудио кодек: FLAC
Тип рипа: image+.cue
Битрейт аудио: lossless
Продолжительность: 1:18:19
Трэклист:
01. Мой дом [0:03:18.45]
02. Белая корова [0:04:01.67]
03. Лимонджумбо [0:02:56.59]
04. Лучшее слово на свете [0:03:23.45]
05. Весёлые поросятки [0:02:50.51]
06. Я вырасту певицей [0:03:05.65]
07. Скакалка [0:02:44.45]
08. Вместе с нами [0:03:05.65]
09. Зелёный бес [0:03:04.53]
10. Мой братишка [0:03:02.64]
11. Звёздный календарь [0:04:08.41]
12. Маленькая школьница [0:03:35.18]
13. Мой дом (караоке) [0:03:30.28]
14. Белая корова (караоке) [0:03:59.65]
15. Лимонджумбо (караоке) [0:02:52.21]
16. Лучшее слово на свете (караоке) [0:03:05.06]
17. Весёлые поросятки (караоке) [0:02:50.23]
18. Я вырасту певицей (караоке) [0:02:49.56]
19. Скакалка (караоке) [0:03:09.38]
20. Вместе с нами (караоке) [0:02:44.45]
21. Зелёный бес (караоке) [0:03:13.00]
22. Мой братишка (караоке) [0:03:02.64]
23. Звёздный календарь (караоке) [0:04:08.20]
24. Маленькая школьница (караоке) [0:03:32.69]

Отчёт EAC

Exact Audio Copy V0.99 prebeta 4 from 23. January 2008
Отчёт EAC об извлечении, выполненном 21. июня 2009, 2:34
VA / Мелодии планеты детства
Дисковод: HL-DT-STDVD-RAM GSA-H55N Adapter: 0 ID: 1
Режим чтения : Достоверность
Использование точного потока : Да
Отключение кэша аудио : Да
Использование указателей C2 : Нет
Коррекция смещения при чтении : 102
Способность читать области Lead-in и Lead-out : Нет
Заполнение пропущенных сэмплов тишиной : Да
Удаление блоков с тишиной в начале и конце : Нет
При вычислениях CRC использовались нулевые сэмплы : Да
Интерфейс : Встроенный Win32-интерфейс для Win NT/2000
Выходной формат : Внутренние WAV-операции
Формат сэмплов : 44.100 Гц; 16 бит; стерео
Смещение при сжатии : 0
TOC извлечённого CD
Трек | Старт | Длительность | Начальный сектор | Конечный сектор
---------------------------------------------------------------------
1 | 0:00.00 | 3:18.45 | 0 | 14894
2 | 3:18.45 | 4:01.67 | 14895 | 33036
3 | 7:20.37 | 2:56.59 | 33037 | 46295
4 | 10:17.21 | 3:23.45 | 46296 | 61565
5 | 13:40.66 | 2:50.51 | 61566 | 74366
6 | 16:31.42 | 3:05.65 | 74367 | 88306
7 | 19:37.32 | 2:44.45 | 88307 | 100651
8 | 22:22.02 | 3:05.65 | 100652 | 114591
9 | 25:27.67 | 3:04.53 | 114592 | 128444
10 | 28:32.45 | 3:02.64 | 128445 | 142158
11 | 31:35.34 | 4:08.41 | 142159 | 160799
12 | 35:44.00 | 3:35.18 | 160800 | 176942
13 | 39:19.18 | 3:30.28 | 176943 | 192720
14 | 42:49.46 | 3:59.65 | 192721 | 210710
15 | 46:49.36 | 2:52.21 | 210711 | 223631
16 | 49:41.57 | 3:05.06 | 223632 | 237512
17 | 52:46.63 | 2:50.23 | 237513 | 250285
18 | 55:37.11 | 2:49.56 | 250286 | 263016
19 | 58:26.67 | 3:09.38 | 263017 | 277229
20 | 61:36.30 | 2:44.45 | 277230 | 289574
21 | 64:21.00 | 3:13.00 | 289575 | 304049
22 | 67:34.00 | 3:02.64 | 304050 | 317763
23 | 70:36.64 | 4:08.20 | 317764 | 336383
24 | 74:45.09 | 3:32.69 | 336384 | 352352
Характеристики диапазона извлечения и сообщения об ошибках
Выбранный диапазон
Имя файла G:\Торренты\Мелодии планеты детства\VA - Мелодии планеты детства.wav
Пиковый уровень 100.0 %
Качество диапазона 99.9 %
CRC теста 27B94ABE
CRC копии 27B94ABE
Копирование... OK
Ошибок не произошло
Конец отчёта
Доп. информация: Исполнители: Ансамбль "Семицветик"(1), Марина Онуфриева(2), Лиана(3,11), Евгения Морозова(4), Соня Хилькова (5,6), Наташа Пешкова(7), Саша Козлова(8), Ансамбль "Lar Si"(9), Кристина Чакветадзе(10), Витя Будыло(12)
Сканы внутри раздачи. Интересно, что на обложке написано 2007 год, а везде и всюду на просторах сети - 2008.
ТОРРЕНТ ПЕРЕЗАЛИТ!
[cybertorrent.ru].t6572.torrent 
Торрент: Зарегистрирован [ 2018-02-15 02:30 ] · AE260C1DD0D6716072C6BE9FB290EF03D2E0198E

Скачать .torrent

Скачать

12 KB

Статус: проверено
Скачан: 0 раз
Размер: 574 MB
terms.php
[Профиль] [ЛС]
Показать сообщения:    
Ответить на тему

Текущее время: 17-Фев 09:38

Часовой пояс: UTC + 3



Вы не можете начинать темы
Вы не можете отвечать на сообщения
Вы не можете редактировать свои сообщения
Вы не можете удалять свои сообщения
Вы не можете голосовать в опросах
Вы не можете прикреплять файлы к сообщениям
Вы можете скачивать файлы