Статистика раздачи
Размер:  661 MB   |    Зарегистрирован:  8 месяцев 27 дней   |    Скачан:  0 раз
DL-List: Нет

Полного источника не было: Никогда

 
     
 
 

MAGNAT ®

Пол:
Мужской
Стаж:
1 год 3 месяца
Сообщений:
8775

National Geographic. Неизвестный Армстронг / The Armstrong Tapes
Дата/Год выпуска: 2019
Страна: США, National Geographic Partners, LLC
Жанр: Документальный, космос, биография, история
Продолжительность: 00:43:58
Перевод: Одноголосый закадровый
Режиссер: Лиз Реф
Телеканал: National Geographic
Описание: История о Ниле Армстронге, человеке, первым из землян вступившем на Луну. Хотя его знаковые слова известны во всем мире, человек, сам этот легендарный человек в течение долгого времени оставался для всех загадкой. Годами Армстронг, избегал внимания СМИ.
В фильме рассказывается о первом человеке, ступившем на Луну, используются интервью с единственным биографом, друзьями и членами семьи, а также архивные аудиозаписи интервью, проведенных с самим Армстронгом.
качество: HDTVRip
формат: AVI
Видео: 720x400 (1.80:1), 25 fps, XviD build 73 ~1899 kbps avg, 0.26 bit/pixel
Аудио: 48 kHz, AC3 Dolby Digital, 2/0 (L,R) ch, ~192.00 kbps avg

MediaInfo

Общее
Полное имя : D:\Запись\Аполлон Миссия, которая изменила мир\Армстронг\Неизвестный.Армстронг.2019.XviD.HDTVRip.alf62.avi
Формат : AVI
Формат/Информация : Audio Video Interleave
Размер файла : 661 Мбайт
Продолжительность : 43 м.
Общий поток : 2102 Кбит/сек
Программа кодирования : VirtualDubMod 1.5.10.3 | www.virtualdub-fr.org || (build 2550/release)
Библиотека кодирования : VirtualDubMod build 2550/release
Видео
Идентификатор : 0
Формат : MPEG-4 Visual
Профиль формата : Advanced Simple@L5
Параметр BVOP формата : 2
Параметр QPel формата : Нет
Параметр GMC формата : Без точки перехода
Параметр матрицы формата : Default (MPEG)
Идентификатор кодека : XVID
Идентификатор кодека/Подсказка : XviD
Продолжительность : 43 м.
Битрейт : 1900 Кбит/сек
Ширина : 720 пикселей
Высота : 400 пикселей
Соотношение сторон : 16:9
Частота кадров : 25,000 кадров/сек
Цветовое пространство : YUV
Субдискретизация насыщенности : 4:2:0
Битовая глубина : 8 бит
Тип развёртки : Прогрессивная
Метод сжатия : С потерями
Бит/(Пиксели*Кадры) : 0.264
Размер потока : 598 Мбайт (90%)
Библиотека кодирования : XviD 73
Аудио
Идентификатор : 1
Формат : AC-3
Формат/Информация : Audio Coding 3
Расширение режима : CM (complete main)
Параметр Endianness формата : Big
Идентификатор кодека : 2000
Продолжительность : 43 м.
Вид битрейта : Постоянный
Битрейт : 192 Кбит/сек
Каналы : 2 канала
Расположение каналов : Front: L R
Частота : 48,0 КГц
Частота кадров : 31,250 кадров/сек (1536 spf)
Метод сжатия : С потерями
Размер потока : 60,4 Мбайт (9%)
Выравнивание : Разделение по промежуткам
Продолжительность промежутка : 40 мс. (1,00 видеокадр)
Время предзагрузки промежутка : 500 мс.

Скриншоты

[cybertorrent.ru].t7664.torrent 
Торрент: Зарегистрирован [ 2019-10-06 18:51 ] · AF57A7FEE57A3FC76B57C9DA1EBAC99BB11C0C7D

Скачать .torrent

Скачать

14 KB

Статус: проверено
Скачан: 0 раз
Размер: 661 MB  ·  Тип торрента
terms.php
Профиль [ЛС]
Показать сообщения:    

Текущее время: 03-Июл 16:08

Часовой пояс: UTC ± 0



Вы не можете начинать темы
Вы не можете отвечать на сообщения
Вы не можете редактировать свои сообщения
Вы не можете удалять свои сообщения
Вы не можете голосовать в опросах
Вы не можете прикреплять файлы к сообщениям
Вы можете скачивать файлы