Статистика раздачи
Размер:  1001 MB   |    Зарегистрирован:  8 месяцев 27 дней   |    Скачан:  0 раз
DL-List: Нет
Сидов:  2  [  0 KB/s  ]   Личеров:  2  [  0 KB/s  ]  
 
     
 
 

MAGNAT ®

Пол:
Мужской
Стаж:
1 год 3 месяца
Сообщений:
8775

Революция космических роботов / Space robot Revolution
Дата/Год выпуска: 2016
Страна: США, Films Concept Associes
Жанр: Документальный, научно-популярный, космос, роботототехника
Продолжительность: 00:52:25
Перевод: Студийный (одноголосый закадровый)
Доп. инфо о переводе: Видеофильм ТВ
Русские субтитры: нет
Оригинальная аудиодорожка: нет
Режиссер: Melanie Dalsace / Мелания Дельзас
Телеканал: Наука
Описание: Робототехника сейчас везде. Люди уже очень тесно сотрудничают с роботами, а кое-где заменены ими. Но ключевую роль роботы должны сыграть в будущем завоевании космоса. Некоторые андроиды уже отправлены туда, другие же, более высокого качества, скоро придут им в помощь или на смену. Что же делают космические роботы, и как они выглядят? Почему и каким образом они так успешно выполняют космические миссии?
качество: DVB
формат: TS
Видео: 720x576@1046x576 (16:9) AVC (H.264) Main@L3.0, ~ 2344 kbps, 25fps
Аудио: Русский 48 kHz, MPEG Layer 2, 2 ch, ~192.00 kbps avg

MediaInfo

Complete name : F:\Наладки\SD-фильмы\Революция космических роботов.ts
Format : MPEG-TS
File size : 1 001 MiB
Duration : 52 min 25 s
Overall bit rate mode : Variable
Overall bit rate : 2 669 kb/s
Video
ID : 401 (0x191)
Menu ID : 2608 (0xA30)
Format : AVC
Format/Info : Advanced Video Codec
Format profile : Main@L3
Format settings : CABAC / 4 Ref Frames
Format settings, CABAC : Yes
Format settings, ReFrames : 4 frames
Codec ID : 27
Duration : 52 min 24 s
Bit rate : 2 344 kb/s
Width : 720 pixels
Height : 576 pixels
Display aspect ratio : 16:9
Frame rate : 25.000 FPS
Standard : Component
Color space : YUV
Chroma subsampling : 4:2:0
Bit depth : 8 bits
Scan type : Interlaced
Scan type, store method : Separated fields
Scan order : Top Field First
Bits/(Pixel*Frame) : 0.226
Stream size : 879 MiB (88%)
Color range : Limited
Color primaries : BT.601 PAL
Transfer characteristics : BT.470 System B, BT.470 System G
Matrix coefficients : BT.470 System B, BT.470 System G
Audio
ID : 402 (0x192)
Menu ID : 2608 (0xA30)
Format : MPEG Audio
Format version : Version 1
Format profile : Layer 2
Codec ID : 3
Duration : 52 min 25 s
Bit rate mode : Constant
Bit rate : 192 kb/s
Channel(s) : 2 channels
Sampling rate : 48.0 kHz
Frame rate : 41.667 FPS (1152 SPF)
Compression mode : Lossy
Delay relative to video : -40 ms
Stream size : 72.0 MiB (7%)
Language : Russian
[cybertorrent.ru].t7665.torrent 
Торрент: Зарегистрирован [ 2019-10-06 18:52 ] · 1E45251BCD8E4EA0225F0800AD22ADD98977DB81

Скачать .torrent

Скачать

20 KB

Статус: проверено
Скачан: 0 раз
Размер: 1001 MB  ·  Тип торрента
terms.php
Профиль [ЛС]
Показать сообщения:    

Текущее время: 03-Июл 15:53

Часовой пояс: UTC ± 0



Вы не можете начинать темы
Вы не можете отвечать на сообщения
Вы не можете редактировать свои сообщения
Вы не можете удалять свои сообщения
Вы не можете голосовать в опросах
Вы не можете прикреплять файлы к сообщениям
Вы можете скачивать файлы