Статистика раздачи
Размер:  1,9 GB   |    Зарегистрирован:  3 месяца 7 дней   |    Скачан:  0 раз

Полного источника не было: Никогда

 
   
 
 

lopster ®

Пол:
Не указан
Стаж:
3 месяца 7 дней
Сообщений:
612

Тайна королевы Анны, или мушкетеры тридцать лет спустя
Год выпуска: 1993
Жанр: Приключенческий
Продолжительность: 80 +78 мин.
Режиссер: Георгий Юнгвальд-Хилькевич.
В ролях: Михаил Боярский, Вениамин Смехов, Валентин Смирнитский, Игорь Старыгин, Дмитрий Харатьян, Алексей Ясулович, Андрей Соколов, Катри Хорма, Алиса Фрейндлих, Анатолий Равикович, Юрий Дубровин, Павел Винник, Екатерина Стриженова, Яна Поплавская, Юри Ярвет, Арунас Сторпирштис.
Описание: Приключенческий фильм по мотивам романа А. Дюма «Виконт де Бражелон».
Доп. информация: В торренте есть файл "sample.avi" размером 10 МБ, советую вначале скачать только его для проверки качества изображения. Судя по всему, это рип с видеокассеты, на которую делали запись с ТВ эфира. Выкладываю только потому, что фильм очень редкий и в лучшем качестве его пока нет.
Все раздачи фильма: Тайна королевы Анны, или мушкетеры тридцать лет спустя

Качество: TV-Rip
Формат: AVI
Видео кодек: DivX
Аудио кодек: MP3
Видео: 376x280 (1.34:1), 25 fps, DivX Codec 6.x ~1724 kbps avg, 0.66 bit/pixel
Аудио: 44.100 kHz, MPEG Layer 3, 2 ch, ~128.00 kbps avg

MI

Код:Общее
Полное имя : C:\otkat\Видео\Мушкетеры 30 лет спустя\30.let\Mushketery.30.let.spustya.1.of.2.(VHSRip,DivX6,Rus).avi
Формат : AVI
Формат/Информация : Audio Video Interleave
Размер файла : 1019 Мбайт
Продолжительность : 1 ч. 16 м.
Общий поток : 1863 Кбит/сек
Библиотека кодирования : VirtualDub build 23604/release
Видео
Идентификатор : 0
Формат : MPEG-4 Visual
Параметр BVOP формата : 1
Параметр QPel формата : Нет
Параметр GMC формата : Без точки перехода
Параметр матрицы формата : Default (H.263)
Режим смешивания : Сжатый битовый поток
Идентификатор кодека : DX50
Идентификатор кодека/Подсказка : DivX 5
Продолжительность : 1 ч. 16 м.
Битрейт : 1725 Кбит/сек
Ширина : 376 пикселей
Высота : 280 пикселей
Соотношение сторон : 4:3
Частота кадров : 25,000 кадров/сек
Цветовое пространство : YUV
Субдискретизация насыщенности : 4:2:0
Битовая глубина : 8 бит
Тип развёртки : Прогрессивная
Метод сжатия : С потерями
Бит/(Пиксели*Кадры) : 0.655
Размер потока : 944 Мбайт (93%)
Библиотека кодирования : DivX 6.1.1 (UTC 2006-02-01)
Аудио
Идентификатор : 1
Формат : MPEG Audio
Версия формата : Version 1
Профиль формата : Layer 3
Режим : Joint stereo
Расширение режима : MS Stereo
Идентификатор кодека : 55
Идентификатор кодека/Подсказка : MP3
Продолжительность : 1 ч. 16 м.
Вид битрейта : Постоянный
Битрейт : 128 Кбит/сек
Каналы : 2 канала
Частота : 44,1 КГц
Метод сжатия : С потерями
Размер потока : 70,0 Мбайт (7%)
Выравнивание : Разделение по промежуткам
Продолжительность промежутка : 40 мс. (1,00 видеокадр)
Время предзагрузки промежутка : 500 мс.

Скриншоты


[cybertorrent.ru].t1.torrent 
Торрент: Зарегистрирован [ 2018-02-15 13:57 ] · E2B1281D69B1E971CD9182D65437E4E33798C331

Скачать .torrent

Скачать

20 KB

Статус: проверено
Скачан: 0 раз
Размер: 1,9 GB
Профиль [ЛС]
Показать сообщения:    

Текущее время: 23-Май 07:10

Часовой пояс: UTC ± 0



Вы не можете начинать темы
Вы не можете отвечать на сообщения
Вы не можете редактировать свои сообщения
Вы не можете удалять свои сообщения
Вы не можете голосовать в опросах
Вы не можете прикреплять файлы к сообщениям
Вы можете скачивать файлы