Статистика раздачи
Размер:  609 MB   |    Зарегистрирован:  3 месяца 8 дней   |    Скачан:  0 раз

Полного источника не было: Никогда

 
   
 
 

lopster ®

Пол:
Не указан
Стаж:
3 месяца 8 дней
Сообщений:
612

Восемнадцатое мгновение весны
Жанр: комедия
Год выпуска: 2001
Продолжительность: 01:26:40
Режиссер: Василий Антонов, Александр Толоконников
В ролях: Владимир Хлебников, Надежда Позина, Андрей Коштанов, Елена Кабызина, Александр Толоконников, Василий Антонов
Описание: Штирлиц не поехал работать в Берлин. Герой Советского Союза полковник Исаев поехал отдыхать в Испанию. На его место заступил другой Штирлиц – полковник из Казани Иса Исаевич Мусаев. Вообще-то Штирлицев было пятнадцать – по одному от каждой союзной республики СССР. Они меняли друг друга каждые три месяца, чтобы окончательно запутать папашу Мюллера, Шелленберга и Гитлера. Неудивительно, что к концу войны Гитлер окончательно сошел с ума. Этот рассказ не претендует на полную историческую достоверность – слишком давно все это было, и Штирлицы не вели дневников (это было очень опасно). Некоторые историки договорились до того, что Штирлицев вообще никаких не было. На это мы можем ответить только одно – а кто же тогда спас радистку Кэт?! И кто застрелил подлого провокатора Клауса? Отнимать у народа Штирлица – что может быть циничнее? Во что тогда вообще верить? Уж лучше бы Гитлера не было. Но Гитлер, к сожалению, был. Однако, к счастью, на всякого Гитлера найдется свой Штирлиц. Даже если бы Штирлица не было – его пришлось бы выдумать...
Доп. информация: Размер - 608 Mb. Фильм чёрно-белый.
Качество видео: DVDRip
Формат видео: AVI
Видео: DivX 5 640x480 25.00fps 780Kbps
Аудио: MPEG Audio Layer 3 48000Hz stereo 192Kbps

MI

Код:Общее
Полное имя : C:\otkat\Видео\Восемнадцатое мгновение\18_toe_mgnowenie_vesny_[torrents.ru].avi
Формат : AVI
Формат/Информация : Audio Video Interleave
Размер файла : 609 Мбайт
Продолжительность : 1 ч. 26 м.
Общий поток : 982 Кбит/сек
Видео
Идентификатор : 0
Формат : MPEG-4 Visual
Параметр BVOP формата : 1
Параметр QPel формата : Нет
Параметр GMC формата : Без точки перехода
Параметр матрицы формата : Default (H.263)
Режим смешивания : Сжатый битовый поток
Идентификатор кодека : DX50
Идентификатор кодека/Подсказка : DivX 5
Продолжительность : 1 ч. 26 м.
Битрейт : 780 Кбит/сек
Ширина : 640 пикселей
Высота : 480 пикселей
Соотношение сторон : 4:3
Частота кадров : 25,000 кадров/сек
Цветовое пространство : YUV
Субдискретизация насыщенности : 4:2:0
Битовая глубина : 8 бит
Тип развёртки : Прогрессивная
Метод сжатия : С потерями
Бит/(Пиксели*Кадры) : 0.102
Размер потока : 484 Мбайт (79%)
Библиотека кодирования : DivX 5.2.1 (WaffleDay) (UTC 2004-09-08)
Аудио
Идентификатор : 1
Формат : MPEG Audio
Версия формата : Version 1
Профиль формата : Layer 3
Идентификатор кодека : 55
Идентификатор кодека/Подсказка : MP3
Продолжительность : 1 ч. 26 м.
Продолжительность оригинала : 1 ч. 26 м.
Вид битрейта : Постоянный
Битрейт : 192 Кбит/сек
Каналы : 2 канала
Частота : 48,0 КГц
Метод сжатия : С потерями
Размер потока : 119 Мбайт (20%)
Выравнивание : Разделение по промежуткам
Продолжительность промежутка : 40 мс. (1,00 видеокадр)

Скриншоты

[cybertorrent.ru].t10.torrent 
Торрент: Зарегистрирован [ 2018-02-15 13:57 ] · 9CE36BD8D28FB34F225E01C4A91F386AB4B66DC8

Скачать .torrent

Скачать

12 KB

Статус: проверено
Скачан: 0 раз
Размер: 609 MB
Профиль [ЛС]
Показать сообщения:    

Текущее время: 23-Май 16:36

Часовой пояс: UTC ± 0



Вы не можете начинать темы
Вы не можете отвечать на сообщения
Вы не можете редактировать свои сообщения
Вы не можете удалять свои сообщения
Вы не можете голосовать в опросах
Вы не можете прикреплять файлы к сообщениям
Вы можете скачивать файлы