Охотники за привидениями / Ghostbusters (Айвен Райтман / Ivan Reitman) [1984, США, Фантастика, фэнтези, боевик, комедия, BDRip] Dub (Варус Видео) + MVO (Видеосервис)

Ответить на тему
Статистика раздачи
Размер:  1,46 GB   |    Зарегистрирован:  8 дней   |    Скачан:  0 раз

Полного источника не было: Никогда

   
 
Автор Сообщение

cooman ®

Пол: Не указан

Стаж: 8 дней

Сообщений: 5

Создавать темы 12-Мар-2019 14:06

[Цитировать]

Охотники за привидениями / Ghostbusters
«Кто-то борется с тараканами и насекомыми. Они очищают город от привидений»
- Год выпуска: 1984
Выпущено: США / Columbia Pictures Corporation
Жанр: фантастика, фэнтези, боевик, комедия
Продолжительность: 01:45:08
Перевод (1): Профессиональный (полное дублирование) Варус Видео
Перевод (2): Профессиональный (многоголосый закадровый) BD EUR / Видеосервис
Субтитры: нет-Режиссер:
Айвен Райтман / Ivan Reitman-В ролях:
Билл Мюррей (Dr. Peter Venkman), Дэн Эйкройд (Dr. Raymond Stantz), Сигурни Уивер (Dana Barrett), Харольд Рэмис (Dr. Egon Spengler), Рик Морэнис (Louis Tully), Энни Поттс (Janine Melnitz), Уильям Этертон (Walter Peck), Эрни Хадсон (Winston Zeddmore), Дэвид Маргулис (Mayor), Стивен Тэш (Male Student)-Описание:
В конце двадцатого века оказывается, что в Нью — Йорке живут не только обычные граждане, но и… привидения. Многомиллионное население не может противостоять натиску сверхъестественного.
В конце концов на пути бесчисленных монстров не остается никого — кроме троих ученых — парапсихологов, которым известно все о потустороннем мире, правда только в теории. И теперь им придется оставить пыльные кабинеты и применить свои знания на практике…-Качество: BDRip
Формат: AVI
Видео: 720x304 (2.37:1), 23.976 fps, XviD build 73 ~1399 kbps avg, 0.27 bit/pixel
Аудио #1: 48 kHz, AC3 Dolby Digital, 2/0 (L,R) ch, ~192.00 kbps avg (DUB) Варус Видео
Аудио #2: 48 kHz, AC3 Dolby Digital, 3/2 (L,C,R,l,r) + LFE ch, ~384.00 kbps avg (MVO) BD EUR / Видеосервис-

Скриншоты

MediaInfo

Код:General
Complete name : D:\Ohotniki_za_privideniyami_1984_BDRip_by_Dalemake.avi
Format : AVI
Format/Info : Audio Video Interleave
File size : 1.46 GiB
Duration : 1h 45mn
Overall bit rate : 1 991 Kbps
Writing application : VirtualDubMod 1.5.10.3 | www.virtualdub-fr.org || (build 2550/release)
Writing library : VirtualDubMod build 2550/release
Video
ID : 0
Format : MPEG-4 Visual
Format profile : Advanced Simple@L5
Format settings, BVOP : 1
Format settings, QPel : No
Format settings, GMC : No warppoints
Format settings, Matrix : Custom
Codec ID : XVID
Codec ID/Hint : XviD
Duration : 1h 45mn
Bit rate : 1 400 Kbps
Width : 720 pixels
Height : 304 pixels
Display aspect ratio : 2.35:1
Frame rate : 23.976 fps
Color space : YUV
Chroma subsampling : 4:2:0
Bit depth : 8 bits
Scan type : Progressive
Compression mode : Lossy
Bits/(Pixel*Frame) : 0.267
Stream size : 1.03 GiB (70%)
Writing library : XviD 73
Audio #1
ID : 1
Format : AC-3
Format/Info : Audio Coding 3
Mode extension : CM (complete main)
Format settings, Endianness : Big
Codec ID : 2000
Duration : 1h 45mn
Bit rate mode : Constant
Bit rate : 192 Kbps
Channel(s) : 2 channels
Channel positions : Front: L R
Sampling rate : 48.0 KHz
Bit depth : 16 bits
Compression mode : Lossy
Stream size : 144 MiB (10%)
Alignment : Split accross interleaves
Interleave, duration : 42 ms (1.00 video frame)
Interleave, preload duration : 500 ms
Audio #2
ID : 2
Format : AC-3
Format/Info : Audio Coding 3
Mode extension : CM (complete main)
Format settings, Endianness : Big
Codec ID : 2000
Duration : 1h 45mn
Bit rate mode : Constant
Bit rate : 384 Kbps
Channel(s) : 6 channels
Channel positions : Front: L C R, Side: L R, LFE
Sampling rate : 48.0 KHz
Bit depth : 16 bits
Compression mode : Lossy
Stream size : 289 MiB (19%)
Alignment : Split accross interleaves
Interleave, duration : 42 ms (1.00 video frame)
Interleave, preload duration : 500 ms
-

Если ваш рейтинг упадет ниже 0,3, вы не сможете скачивать торренты! Подробнее о рейтинге.

[cybertorrent.ru].t10.torrent 
Торрент: Зарегистрирован [ 2019-03-12 14:06 ] · C2D7A4E29570D75C3833F7E0018C9D420CBBF479

Скачать .torrent

Скачать

15 KB

Статус: проверено
Скачан: 0 раз
Размер: 1,46 GB
terms.php
[Профиль] [ЛС]
Показать сообщения:    
Ответить на тему

Текущее время: 21-Мар 10:25

Часовой пояс: UTC ± 0



Вы не можете начинать темы
Вы не можете отвечать на сообщения
Вы не можете редактировать свои сообщения
Вы не можете удалять свои сообщения
Вы не можете голосовать в опросах
Вы не можете прикреплять файлы к сообщениям
Вы можете скачивать файлы

Боковая панель 2

Для добавления контента в данную боковую панель, отредактируйте указанные файлы:

  • library/language/*/html/sidebar2.html
  • style/templates/default/page_footer.tpl

Для отключения данной боковой панели, установите значение переменной $page_cfg['show_sidebar2'] в файле config.php в положение false.

Партнеры

Выражаем благодарность всем людям, внесшим материальную помощь в развитие TorrentPier II, указанным в файле contributors.txt.