Статистика раздачи
Размер:  1,37 GB   |    Зарегистрирован:  3 месяца 6 дней   |    Скачан:  0 раз

Полного источника не было: Никогда

 
   
 
 

lopster ®

Пол:
Не указан
Стаж:
3 месяца 6 дней
Сообщений:
612

Ванька Грозный
Год выпуска: 2008
Жанр: мелодрама, комедия
Продолжительность: 01:35:14
Режиссер: Дмитрий Петрунь
В ролях: Андрей Казаков, Ирина Пегова, Ольга Вечкилева, Игорь Ясулович, Юрий Горбач, Василий Савинов, Семён Фурман, Пак Хек Су, Сергей Фетисов, Геннадий Храпунков, Татьяна Шатилова, Николай Шрайбер, Сергей Бедарев, Екатерина Гулина, Елизавета Гулина, Наталья Кислицина, Андрей Синицкий, Александр Якунин, Анжела Ким, Владимир Шмаков, Сергей Заботин, Владимир Терещенко, Леонид Кутцар, Анатолий Бармин
Описание: Бизнесмен Егор Будылин попадает в аварию на проселочной дороге: его дорогая иномарка сталкивается с… трактором. Водителя «железного коня» зовут Иван, и он, как брат-близнец, похож на Егора. Удивленные, они расходятся полюбовно. Но уже вскоре судьба сведет их снова. Егор, у которого в последнее время не ладится ни бизнес, ни личная жизнь, подговаривает Ивана махнуться местами, пожить его жизнью, а ему уступить Иванову деревенскую жизнь…
Все раздачи фильма: Ванька Грозный
Релиз от:
Качество видео: DVDRip
Формат видео: AVI
Видео: 704x400 (1.76:1), 25 fps, XviD Final 1.0.3 (build 37) ~1857 kbps avg, 0.26 bit/pixel
Аудио: 48 kHz, AC3 Dolby Digital, 2/0 (L,R) ch, ~192.00 kbps avg

MI

Код:Общее
Полное имя : C:\otkat\Видео\Ванька Грозный\Vanka.Groznij.2008.XviD.DVDRip.avi
Формат : AVI
Формат/Информация : Audio Video Interleave
Размер файла : 1,37 Гбайт
Продолжительность : 1 ч. 35 м.
Общий поток : 2056 Кбит/сек
Программа кодирования : VirtualDubMod 1.5.4.1 (build 2178/release)
Библиотека кодирования : VirtualDubMod build 2178/release
Видео
Идентификатор : 0
Формат : MPEG-4 Visual
Профиль формата : Simple@L3
Параметр BVOP формата : 1
Параметр QPel формата : Нет
Параметр GMC формата : Без точки перехода
Параметр матрицы формата : Выборочная
Идентификатор кодека : XVID
Идентификатор кодека/Подсказка : XviD
Продолжительность : 1 ч. 35 м.
Битрейт : 1857 Кбит/сек
Ширина : 704 пикселя
Высота : 400 пикселей
Соотношение сторон : 16:9
Частота кадров : 25,000 кадров/сек
Цветовое пространство : YUV
Субдискретизация насыщенности : 4:2:0
Битовая глубина : 8 бит
Тип развёртки : Прогрессивная
Метод сжатия : С потерями
Бит/(Пиксели*Кадры) : 0.264
Размер потока : 1,24 Гбайт (90%)
Библиотека кодирования : XviD 1.0.3 (UTC 2004-12-20)
Аудио
Идентификатор : 1
Формат : AC-3
Формат/Информация : Audio Coding 3
Расширение режима : CM (complete main)
Параметр Endianness формата : Big
Идентификатор кодека : 2000
Продолжительность : 1 ч. 35 м.
Вид битрейта : Постоянный
Битрейт : 192 Кбит/сек
Каналы : 2 канала
Расположение каналов : Front: L R
Частота : 48,0 КГц
Частота кадров : 31,250 кадров/сек (1536 spf)
Метод сжатия : С потерями
Размер потока : 131 Мбайт (9%)
Выравнивание : Разделение по промежуткам
Продолжительность промежутка : 96 мс. (2,40 видеокадра)
Время предзагрузки промежутка : 96 мс.
Язык : English

Скриншоты

[cybertorrent.ru].t102.torrent 
Торрент: Зарегистрирован [ 2018-02-15 13:57 ] · 9272DF183B955DEC1BA011B8C406A1909A5EAB0C

Скачать .torrent

Скачать

14 KB

Статус: проверено
Скачан: 0 раз
Размер: 1,37 GB
Профиль [ЛС]
Показать сообщения:    

Текущее время: 22-Май 00:19

Часовой пояс: UTC ± 0



Вы не можете начинать темы
Вы не можете отвечать на сообщения
Вы не можете редактировать свои сообщения
Вы не можете удалять свои сообщения
Вы не можете голосовать в опросах
Вы не можете прикреплять файлы к сообщениям
Вы можете скачивать файлы