Статистика раздачи
Размер:  700 MB   |    Зарегистрирован:  3 месяца 12 дней   |    Скачан:  0 раз

Полного источника не было: Никогда

 
   
 
 

lopster ®

Пол:
Не указан
Стаж:
3 месяца 12 дней
Сообщений:
612

Ищу невесту без приданого
Год выпуска: 2003
Жанр: Лирическая комедия
Продолжительность: 01:35:38
Режиссер: Аким Салбиев
В ролях: Екатерина Гусева, Амалия Гольданская, Дмитрий Орлов, Евгений Стычкин, Людмила Касаткина, Александр Мохов, Дарья Калмыкова
Описание: Новая версия рождественской сказки о Золушке. В провинциальном городке одна воспитывает дочь молодая привлекательная женщина Вера - очень добрый и отзывчивый человек. Ее подруга Эльвира - хозяйка брачного агентства - хочет сосватать ей какого-нибудь жениха. За Верой пытается ухаживать ее сосед - молодой врач Володя. А она приютила у себя одинокую заболевшую женщину - бывшую учительницу Веру Петровну. Но та неожиданно исчезает...
Доп. информация: Релиз от:
Все раздачи фильма: Ищу невесту без приданого
Качество: DVDRip
Формат: AVI
Видео кодек: XviD
Аудио кодек: MP3
Видео: 640x320 (2.00:1), 25 fps, XviD MPEG-4 ~899 kbps avg, 0.18 bit/pixel
Аудио: 48 kHz, MPEG Layer 3, 2 ch, ~109.98 kbps avg

MI

Код:Общее
Полное имя : C:\otkat\Видео\Ищу невесту без приданого\Ichu.newestu.bes.priadanogo.2003.XviD.DVDRip.Prinz1978.[torrents.ru].avi
Формат : AVI
Формат/Информация : Audio Video Interleave
Размер файла : 700 Мбайт
Продолжительность : 1 ч. 35 м.
Режим общего битрейта : Переменный
Общий поток : 1023 Кбит/сек
Программа кодирования : VirtualDubMod 1.5.4.1 (build 2178/release)
Библиотека кодирования : VirtualDubMod build 2178/release
Видео
Идентификатор : 0
Формат : MPEG-4 Visual
Профиль формата : Advanced Simple@L5
Параметр BVOP формата : 1
Параметр QPel формата : Нет
Параметр GMC формата : Без точки перехода
Параметр матрицы формата : Выборочная
Идентификатор кодека : XVID
Идентификатор кодека/Подсказка : XviD
Продолжительность : 1 ч. 35 м.
Битрейт : 901 Кбит/сек
Ширина : 640 пикселей
Высота : 320 пикселей
Соотношение сторон : 2,000
Частота кадров : 25,000 кадров/сек
Цветовое пространство : YUV
Субдискретизация насыщенности : 4:2:0
Битовая глубина : 8 бит
Тип развёртки : Прогрессивная
Метод сжатия : С потерями
Бит/(Пиксели*Кадры) : 0.176
Размер потока : 616 Мбайт (88%)
Библиотека кодирования : XviD 1.2.1 (UTC 2008-12-04)
Аудио
Идентификатор : 1
Формат : MPEG Audio
Версия формата : Version 1
Профиль формата : Layer 3
Режим : Joint stereo
Расширение режима : MS Stereo
Идентификатор кодека : 55
Идентификатор кодека/Подсказка : MP3
Продолжительность : 1 ч. 35 м.
Вид битрейта : Переменный
Битрейт : 110 Кбит/сек
Номинальный битрейт : 128 Кбит/сек
Каналы : 2 канала
Частота : 48,0 КГц
Метод сжатия : С потерями
Размер потока : 75,2 Мбайт (11%)
Выравнивание : Соединение по промежуткам
Продолжительность промежутка : 24 мс. (0,60 видеокадр)
Время предзагрузки промежутка : 537 мс.
Библиотека кодирования : LAME3.97
Настройки программы : -m j -V 4 -q 2 -lowpass 17 --abr 128
Язык : English

Скриншоты


[cybertorrent.ru].t103.torrent 
Торрент: Зарегистрирован [ 2018-02-15 13:57 ] · 17F7CADBF6DCB786827C8B4DF2E3A3597C5A4547

Скачать .torrent

Скачать

14 KB

Статус: проверено
Скачан: 0 раз
Размер: 700 MB
Профиль [ЛС]
Показать сообщения:    

Текущее время: 28-Май 02:51

Часовой пояс: UTC ± 0



Вы не можете начинать темы
Вы не можете отвечать на сообщения
Вы не можете редактировать свои сообщения
Вы не можете удалять свои сообщения
Вы не можете голосовать в опросах
Вы не можете прикреплять файлы к сообщениям
Вы можете скачивать файлы