Статистика раздачи
Размер:  1,47 GB   |    Зарегистрирован:  18 дней   |    Скачан:  0 раз

Полного источника не было: Никогда

 
     
 
 

MAGNAT ®

Пол:
Мужской
Стаж:
9 месяцев 22 дня
Сообщений:
1677

Дело «смеющихся человечков» / Happy Face Murders
«They were searching for a killer. She was searching for a way out»
Страна: США
Жанр: Триллер, Детектив
Год выпуска: 1999
Продолжительность: 01:39:03
Перевод: Профессиональный (двухголосый закадровый) Премьер Видео Фильм
Субтитры: нет
Режиссер: Брайан Тренчард-Смит / Brian Trenchard-Smith
В ролях: Энн-Маргрет, Марг Хельгенбергер, Генри Томас, Николас Кэмпбелл, Рик Питерс, Дэвид
Макилрайт, Брюс Грэй, Дж.С. МакКензи, Эмили Хэмпшир, Кристина Коллинз
Описание: Фильм поставлен по реальным событиям.
Шестидесятилетняя Лоррэйн Петрович, доведенная до крайности пьянством и постоянными
оскорблениями и побоями своего сорокалетнего сожителя Расти Зувика, решила воспользоваться
убийством проститутки Трэйси Биллингс, произошедшим в небольшом городке, где она жила.
Обожающая детективные фильмы Лоррэйн сначала анонимно звонит в полицию и доносит на
своего сожителя, а потом обвиняет его в убийстве. По ходу следствия она несколько раз меняет
свои показания и даже берет на себя вину, утверждая, что помогла Расти избавиться от тела. На
суде же Лоррэйн внезапно полностью отказывается от прежних показаний, однако, суд все равно
приговаривает ее к пожизненному заключению. Но… появляется настоящий убийца. Он пишет
письма, в которых рассказывает, как и где он убил четырех проституток, потому что те
напоминали ему бросившую его жену…
Занимательное такое кино. (М. Иванов)
Качество видео: DVDRip
Формат видео: AVI
Видео: XviD build 73, 624x464 (1.34:1), 23.976 fps, 1722 kbps avg, 0.25 bit/pixel
Аудио: AC3 Dolby Digital, 48000Hz, 2/0 (L,R) ch (mono), 192 kbps avg (DVO)
Аудио 2: AC3 Dolby Digital, 48000Hz, 2/0 (L,R) ch (stereo), 192 kbps avg (Eng)

MediaInfo

Дело «смеющихся человечков» (Happy Face Murders) [by ale_X2008].avi
Format : AVI
Format/Info : Audio Video Interleave
File size : 1.47 GiB
Duration : 1 h 39 min
Overall bit rate : 2 121 kb/s
Movie name : Дело «смеющихся человечков» (Happy Face Murders) Eng
Director : DVDRip by ale_x2008
Genre : Thriller
Writing application : VirtualDubMod 1.5.10.3 (build 2550/release)
Original source form/Name : Movie
Copyright : Edich2
Comment : RuTracker.org
Video
ID : 0
Format : MPEG-4 Visual
Format profile : Advanced Simple@L5
Format settings : BVOP1
Format settings, BVOP : 1
Format settings, QPel : No
Format settings, GMC : No warppoints
Format settings, Matrix : Default (MPEG)
Codec ID : XVID
Codec ID/Hint : XviD
Duration : 1 h 39 min
Bit rate : 1 723 kb/s
Width : 624 pixels
Height : 464 pixels
Display aspect ratio : 4:3
Frame rate : 23.976 (24000/1001) FPS
Color space : YUV
Chroma subsampling : 4:2:0
Bit depth : 8 bits
Scan type : Progressive
Compression mode : Lossy
Bits/(Pixel*Frame) : 0.248
Stream size : 1.19 GiB (81%)
Writing library : XviD 73
Audio #1
ID : 1
Format : AC-3
Format/Info : Audio Coding 3
Codec ID : 2000
Duration : 1 h 39 min
Bit rate mode : Constant
Bit rate : 192 kb/s
Channel(s) : 2 channels
Channel positions : Front: L R
Sampling rate : 48.0 kHz
Frame rate : 31.250 FPS (1536 SPF)
Bit depth : 16 bits
Compression mode : Lossy
Stream size : 136 MiB (9%)
Alignment : Split accross interleaves
Interleave, duration : 42 ms (1.00 video frame)
Interleave, preload duratio : 500 ms
Service kind : Complete Main
Audio #2
ID : 2
Format : AC-3
Format/Info : Audio Coding 3
Codec ID : 2000
Duration : 1 h 39 min
Bit rate mode : Constant
Bit rate : 192 kb/s
Channel(s) : 2 channels
Channel positions : Front: L R
Sampling rate : 48.0 kHz
Frame rate : 31.250 FPS (1536 SPF)
Bit depth : 16 bits
Compression mode : Lossy
Stream size : 136 MiB (9%)
Alignment : Split accross interleaves
Interleave, duration : 42 ms (1.00 video frame)
Interleave, preload duratio : 500 ms
Service kind : Complete Main

Скриншоты


[cybertorrent.ru].t10369.torrent 
Торрент: Зарегистрирован [ 2020-01-02 10:08 ] · 2C0E67C3E8F6F5ECEAC1F6624BC2E5935626605F

Скачать .torrent

Скачать

15 KB

Статус: проверено
Скачан: 0 раз
Размер: 1,47 GB
terms.php
Профиль [ЛС]
Показать сообщения:    

Текущее время: 20-Янв 14:16

Часовой пояс: UTC ± 0



Вы не можете начинать темы
Вы не можете отвечать на сообщения
Вы не можете редактировать свои сообщения
Вы не можете удалять свои сообщения
Вы не можете голосовать в опросах
Вы не можете прикреплять файлы к сообщениям
Вы можете скачивать файлы