BitTorrent клиенты



Белая рабыня / La Esclava Blanca / The White Slave / Серии: 1-61 (61) (Лилиана Боканегра, Матео Стиуэльбер) [2016, Колумбия, Мелодрама, теленовелла, WEBRip] MVO (Видеопродакшн)

Ответить на тему
Статистика раздачи
Размер:  19,68 GB   |    Зарегистрирован:  1 год   |    Скачан:  0 раз

Полного источника не было: Никогда

 
   
 
 
Автор Сообщение

Dream ®

Пол: Не указан

Стаж: 1 год

Сообщений: 816

Создавать темы 16-Фев-2018 08:27

[Цитировать]

Белая рабыня / La Esclava Blanca (The White Slave)
Год выпуска: 2016
Страна: Колумбия
Производство: Caracol Televisión
Жанр: Мелодрама, теленовелла, исторический
Серии (количество): 1-61 (61)
Продолжительность: 61 x ~ 00:43:11
Перевод: Профессиональный многоголосый закадровый
Субтитры: Отсутствуют
Режиссёр: Лилиана Боканегра, Матео Стиуэльбер
В ролях: Нереа Комачо, Ориан Суарес, Мигель Де Мигель, Модесто Ласен, Норма Мартинес, Рикардо Весга, Вина Мачадо, Андрес Суарес, Мирослава Моралес, Наташа Клаусс, Ана Москера, Мауро Донетти, Лусиано Д’Алессандро, Паола Морено
Описание: Виктория - молодая девушка, приехавшая из Испании якобы для того, чтобы выйти замуж. Но на самом деле она вернулась для того, чтобы восстановить справедливость и освободить семью чернокожих рабов, что спасли ее от смерти в младенчестве, вырастили, но были вынуждены отослать ее в Европу, потому как по закону белая женщина не могла жить с рабами.
Доп. информация: Озвучивание: Профессиональное многолосое (Компания "Видеопродакшн")
Рип и синхронизация звука - rafwan123
Ссылка на предыдущие и альтернативные раздачи: http://rutracker.org/forum/tracker.php?nm=%D0%91%D0%B5%D0%BB%D0%B0%D1%8F%20%D1%80%D0%B0%D0%B1%D1%8B
Качество: WEBRip
Формат: AVI
Видео кодек: XviD
Аудио кодек: MP3
Видео: MPEG-4 Visual XviD, 608х344, 29.970 fps, ~ 900 kbps
Аудио: MPEG Audio, Layer 3, 44.1 kHz, 128 kbps

MI

Общее
Полное имя : G:\La.Esclava.Blanca.MVO\La.Esclava.Blanca.e03.avi
Формат : AVI
Формат/Информация : Audio Video Interleave
Размер файла : 321 Мбайт
Продолжительность : 43 м. 11 с.
Общий поток : 1040 Кбит/сек
Программа кодирования : VirtualDubModRus 1.5.10.2 (build 2542/release)
Библиотека кодирования : VirtualDubMod build 2542/release
Видео
Идентификатор : 0
Формат : MPEG-4 Visual
Профиль формата : Advanced Simple@L5
Параметр BVOP формата : 2
Параметр QPel формата : Нет
Параметр GMC формата : Без точки перехода
Параметр матрицы формата : Выборочная
Идентификатор кодека : XVID
Идентификатор кодека/Подсказка : XviD
Продолжительность : 43 м. 11 с.
Битрейт : 901 Кбит/сек
Ширина : 608 пикселей
Высота : 344 пикселя
Соотношение сторон : 16:9
Частота кадров : 29,970 (30000/1001) кадров/сек
Частота кадров в оригинале : 29,970 (29970/1000) кадров/сек
Цветовое пространство : YUV
Субдискретизация насыщенности : 4:2:0
Битовая глубина : 8 бит
Тип развёртки : Прогрессивная
Метод сжатия : С потерями
Бит/(Пиксели*Кадры) : 0.144
Размер потока : 278 Мбайт (87%)
Библиотека кодирования : XviD 73
Аудио
Идентификатор : 1
Формат : MPEG Audio
Версия формата : Version 1
Профиль формата : Layer 3
Идентификатор кодека : 55
Идентификатор кодека/Подсказка : MP3
Продолжительность : 43 м. 11 с.
Вид битрейта : Постоянный
Битрейт : 128 Кбит/сек
Каналы : 2 канала
Частота : 44,1 КГц
Метод сжатия : С потерями
Размер потока : 39,5 Мбайт (12%)
Выравнивание : Разделение по промежуткам
Продолжительность промежутка : 33 мс. (1,00 видеокадр)
Время предзагрузки промежутка : 500 мс.

Скриншоты


[cybertorrent.ru].t10559.torrent 
Торрент: Зарегистрирован [ 2018-02-16 08:30 ] · 6869AD2009C65E43DBAAFE6419E52EEB187008D2

Скачать .torrent

Скачать

102 KB

Статус: проверено
Скачан: 0 раз
Размер: 19,68 GB
terms.php
[Профиль] [ЛС]
Показать сообщения:    
Ответить на тему

Текущее время: 22-Фев 03:54

Часовой пояс: UTC + 3



Вы не можете начинать темы
Вы не можете отвечать на сообщения
Вы не можете редактировать свои сообщения
Вы не можете удалять свои сообщения
Вы не можете голосовать в опросах
Вы не можете прикреплять файлы к сообщениям
Вы можете скачивать файлы