Статистика раздачи
Размер:  1,42 GB   |    Зарегистрирован:  10 дней   |    Скачан:  0 раз

Полного источника не было: Никогда

 
     
 
 

cooman ®

Пол:
Не указан
Стаж:
10 месяцев 8 дней
Сообщений:
29

Русалочка / The Little Mermaid
Страна: США
Жанр: мультфильм, мюзикл, фэнтези, мелодрама, семейный
Год выпуска: 1989
Продолжительность: 01:22:48
Перевод: Авторский (одноголосый закадровый) А.Ю.Гаврилов (поздний)
Перевод 2: Авторский (одноголосый закадровый) А.М.Михалёв
Субтитры: нет
Режиссер: Рон Клементс, Джон Маскер
В ролях: Джоди Бенсон
Пэт Кэрролл
Рене Обержонуа
Кристофер Дэниэл Барнс
Пэдди Эдвардс
Бадди Хэкетт
Джейсон Марин
Кеннет Марс
Эди Макклёрг
Уилл Райан
...
Описание: Таинственные глубины моря хранят немало тайн, а обитатели океана могут рассказать множество удивительных историй. И самой невероятной из них была и остаётся история русалочки Ариэль. Дочь могущественного царя подводного мира Тритона, она однажды влюбляется в прекрасного и мужественного принца. Но разве они могут быть вместе — земной человек и морская дева? Однако настоящие чувства преодолевают любые преграды. Ради своей любви Ариэль готова пойти на всё. Даже если для обретения своего счастья ей навсегда придётся покинуть родной океан и навеки стать земной девушкой…
Доп. информация:
Автор рипа: kingsize87 на РУТОРЕ
Дорожки с переводом А.Гаврилова (поздний), А.Михалёва, СПАСИБО multmir
Синхронизация дорожек ОГРОМНОЕ СПАСИБО ale_x2008
мультфильм в первые в позднем переводе А.Ю.Гаврилова в формате AVI
Сэмпл: https://yadi.sk/i/MJCXu_RELJiLWQ
Качество видео: BDRip
Формат видео: AVI
Видео: 720x400 (1.80:1)23.976 fps XviD build 65 2052 kbps avg 0.30 bit/pixel
Аудио: 48 kHz AC3 Dolby Digital 2/0 (L,R) ch 192 kbps (avo) А.Гаврилов (поздний)
Аудио 2: 48 kHz AC3 Dolby Digital 2/0 (L,R) ch 192 kbps (avo) А.Михалёв

MediaInfo

General
Complete name : D:\Downloads\РУСАЛОЧКА перевод (А.Гаврилов,А.Михалёв).avi
Format : AVI
Format/Info : Audio Video Interleave
File size : 1.42 GiB
Duration : 1 h 22 min
Overall bit rate : 2 452 kb/s
Movie name : Русалочка / The Little Mermaid (1989) BDRip
Director : kingsize87
Writing application : VirtualDubMod 1.5.10.3 | www.virtualdub-fr.org || (build 2550/release)
Writing library : VirtualDubMod build 2550/release
Copyright : HQCLUB
Comment : 26.08.2013
Video
ID : 0
Format : MPEG-4 Visual
Format profile : Advanced Simple@L5
Format settings : BVOP1 / Custom Matrix
Format settings, BVOP : 1
Format settings, QPel : No
Format settings, GMC : No warppoints
Format settings, Matrix : Custom
Codec ID : XVID
Codec ID/Hint : XviD
Duration : 1 h 22 min
Bit rate : 2 053 kb/s
Width : 720 pixels
Height : 400 pixels
Display aspect ratio : 16:9
Frame rate : 23.976 (24000/1001) FPS
Color space : YUV
Chroma subsampling : 4:2:0
Bit depth : 8 bits
Scan type : Progressive
Compression mode : Lossy
Bits/(Pixel*Frame) : 0.297
Stream size : 1.19 GiB (84%)
Writing library : XviD 65
Audio #1
ID : 1
Format : AC-3
Format/Info : Audio Coding 3
Commercial name : Dolby Digital
Codec ID : 2000
Duration : 1 h 22 min
Bit rate mode : Constant
Bit rate : 192 kb/s
Channel(s) : 2 channels
Channel layout : L R
Sampling rate : 48.0 kHz
Frame rate : 31.250 FPS (1536 SPF)
Bit depth : 16 bits
Compression mode : Lossy
Stream size : 114 MiB (8%)
Alignment : Split across interleaves
Interleave, duration : 42 ms (1.00 video frame)
Interleave, preload duratio : 500 ms
Service kind : Complete Main
Audio #2
ID : 2
Format : AC-3
Format/Info : Audio Coding 3
Commercial name : Dolby Digital
Codec ID : 2000
Duration : 1 h 22 min
Bit rate mode : Constant
Bit rate : 192 kb/s
Channel(s) : 2 channels
Channel layout : L R
Sampling rate : 48.0 kHz
Frame rate : 31.250 FPS (1536 SPF)
Bit depth : 16 bits
Compression mode : Lossy
Stream size : 114 MiB (8%)
Alignment : Split across interleaves
Interleave, duration : 42 ms (1.00 video frame)
Interleave, preload duratio : 500 ms
Service kind : Complete Main

Скриншот c названием фильма

Скриншоты


[cybertorrent.ru].t10590.torrent 
Торрент: Зарегистрирован [ 2020-01-09 18:22 ] · 747E4B3A06629B2551E6C9377501772D2602827A

Скачать .torrent

Скачать

15 KB

Статус: проверено
Скачан: 0 раз
Размер: 1,42 GB
terms.php
Профиль [ЛС]
Показать сообщения:    

Текущее время: 20-Янв 14:02

Часовой пояс: UTC ± 0



Вы не можете начинать темы
Вы не можете отвечать на сообщения
Вы не можете редактировать свои сообщения
Вы не можете удалять свои сообщения
Вы не можете голосовать в опросах
Вы не можете прикреплять файлы к сообщениям
Вы можете скачивать файлы