Статистика раздачи
Размер:  2,17 GB   |    Зарегистрирован:  6 месяцев 2 дня   |    Скачан:  0 раз
DL-List: Нет
Сидов:  1  [  0 KB/s  ]  
 
     
 
 

Peter ®

Пол:
Мужской
Стаж:
10 месяцев 25 дней
Сообщений:
234

Солнцестояние / Midsommar
Страна: США, Швеция, Венгрия
Жанр: триллер, драма
Год выпуска: 2019
Продолжительность: 02:50:15
Перевод: Авторский (одноголосый закадровый) Сергей Визгунов
Субтитры: нет
Режиссер: Ари Астер / Ari Aster
В ролях: Флоренс Пью, Джек Рейнор, Вильхельм Бломгрен, Уильям Харпер, Уилл Поултер, Эллора Торчия, Арчи Мадекве, Хенрик Норлен, Гуннель Фред
Описание: Молодая влюблённая пара, отправляется погостить к своим друзьям в отдалённый небольшой городок в Швеции. Там местные жители проводят традиционный скандинавский сезонный обряд, отмечая праздник летнего солнцестояния, Мидсоммар. И хотя всё вокруг обещает героям идиллический отдых в живописных местах, очень скоро мирное празднование сменится настоящим кошмаром, поскольку милые и добрые обитатели шведской деревеньки окажутся служителями кровавого языческого культа...

Сэмпл: http://multi-up.com/1250531
Качество видео: BDRip (Исходник BDRemux 1080p)
Формат видео: AVI
Видео: XviD 73, 704x352, (2,00:1), 23,976 fps, 1430 Кбит/с, 8 бит, 0.24 bit/pixel
Аудио: Русский (АС3, 6 ch (Front: L C R, Side: L R, LFE), 48,0 KHz, 384 Kbps

MediaInfo

Общее
Полное имя : D:\Фильмы на трекер\Солнцестояние (триллер, драма 2019 год).avi
Формат : AVI
Формат/Информация : Audio Video Interleave
Профиль формата : OpenDML
Размер файла : 2,17 Гбайт
Продолжительность : 2 ч. 50 м.
Общий поток : 1826 Кбит/сек
Программа кодирования : VirtualDubMod 1.5.10.2 (build 2540/release)
Библиотека кодирования : VirtualDubMod build 2540/release
Видео
Идентификатор : 0
Формат : MPEG-4 Visual
Профиль формата : Advanced Simple@L5
Параметр BVOP формата : 2
Параметр QPel формата : Нет
Параметр GMC формата : Без точки перехода
Параметр матрицы формата : Выборочная
Идентификатор кодека : XVID
Идентификатор кодека/Подсказка : XviD
Продолжительность : 2 ч. 50 м.
Битрейт : 1430 Кбит/сек
Ширина : 704 пикселя
Высота : 352 пикселя
Соотношение сторон : 2,000
Частота кадров : 23,976 (23976/1000) кадра/сек
Цветовое пространство : YUV
Субдискретизация насыщенности : 4:2:0
Битовая глубина : 8 бит
Тип развёртки : Прогрессивная
Метод сжатия : С потерями
Бит/(Пиксели*Кадры) : 0.241
Размер потока : 1,70 Гбайт (78%)
Библиотека кодирования : XviD 73
Аудио
Идентификатор : 1
Формат : AC-3
Формат/Информация : Audio Coding 3
Расширение режима : CM (complete main)
Параметр Endianness формата : Big
Идентификатор кодека : 2000
Продолжительность : 2 ч. 50 м.
Вид битрейта : Постоянный
Битрейт : 384 Кбит/сек
Каналы : 6 каналов
Расположение каналов : Front: L C R, Side: L R, LFE
Частота : 48,0 КГц
Частота кадров : 31,250 кадров/сек (1536 spf)
Метод сжатия : С потерями
Размер потока : 468 Мбайт (21%)
Выравнивание : Разделение по промежуткам
Продолжительность промежутка : 42 мс. (1,00 видеокадр)
Время предзагрузки промежутка : 500 мс.

Скриншот c названием фильма

Скриншоты

[cybertorrent.ru].t10605.torrent 
Торрент: Зарегистрирован [ 2020-01-09 18:22 ] · B60EE27A413387A1ACC1C75635BE4FEE4944FE1E

Скачать .torrent

Скачать

11 KB

Статус: проверено
Скачан: 0 раз
Размер: 2,17 GB  ·  Тип торрента
terms.php
Профиль [ЛС]
Показать сообщения:    

Текущее время: 12-Июл 14:01

Часовой пояс: UTC ± 0



Вы не можете начинать темы
Вы не можете отвечать на сообщения
Вы не можете редактировать свои сообщения
Вы не можете удалять свои сообщения
Вы не можете голосовать в опросах
Вы не можете прикреплять файлы к сообщениям
Вы можете скачивать файлы