Статистика раздачи
Размер:  1,36 GB   |    Зарегистрирован:  3 месяца 12 дней   |    Скачан:  0 раз

Полного источника не было: Никогда

Личеров:  1  [  0 KB/s  ]  
 
   
 
 

lopster ®

Пол:
Не указан
Стаж:
3 месяца 12 дней
Сообщений:
612

Про любовь
Год выпуска: 2009
Жанр: Комедия
Продолжительность: 01:30:21
Режиссер: Алексей Мамедов
В ролях: Игорь Скляр, Светлана Малюкова, Семен Стругачев, Стас Беляев, Андрей Ташков, Ела Санько
Описание: В жизни Любы наступила черная полоса: в один день она осталась без жилья, без работы и без любимого. Но мир не без добрых людей - Люба находит приют в доме у экстравагантной, но добросердечной женщины Ады, а вскоре и получает выгодное предложение по работе. Но чтобы занять место журналиста в городской газете, Люба должна пойти на обман.Главный редактор Кирилл Петрович пытался помочь своему лучшему другу Валентину найти его дочь, но поторопился с выводами. У редактора не хватило мужества признаться, что он ошибся.Валентин спешит познакомиться с дочерью, которую никогда не видел. По мнению Кирилла Петровича, Люба идеально может сыграть эту роль – она сирота и очень похожа на бывшую жену его друга.Помимо своей воли Люба оказывается втянута в авантюру. Благодаря Валентину она знакомится с интересными людьми, открывает новые краски жизни, неожиданные грани своего таланта. Но радость омрачает недоброе предчувствие – настоящее счастье нельзя построить на обмане, пусть даже это ложь во спасение...
Все раздачи фильма: Про любовь
Доп. информация: Релиз от:
Качество: DVDRip
Формат: AVI
Видео кодек: XviD
Аудио кодек: AC3
Видео: 704x384 (1.83:1), 25 fps, XviD MPEG-4 ~1693 kbps avg, 0.25 bit/pixel
Аудио: 48 kHz, AC3 Dolby Digital, 2/0 (L,R) ch, ~448.00 kbps avg

MI

Код:Общее
Полное имя : C:\otkat\Видео\Про любовь\Pro.Lybov.2009.XviD.DVDRip.Kinozal.tv.avi
Формат : AVI
Формат/Информация : Audio Video Interleave
Размер файла : 1,36 Гбайт
Продолжительность : 1 ч. 30 м.
Общий поток : 2151 Кбит/сек
Программа кодирования : FairUse Wizard - http://fairusewizard.com
Библиотека кодирования : The best and REALLY easy backup tool
Видео
Идентификатор : 0
Формат : MPEG-4 Visual
Профиль формата : Advanced Simple@L5
Параметр BVOP формата : 1
Параметр QPel формата : Нет
Параметр GMC формата : Без точки перехода
Параметр матрицы формата : Default (H.263)
Режим смешивания : Сжатый битовый поток
Идентификатор кодека : XVID
Идентификатор кодека/Подсказка : XviD
Продолжительность : 1 ч. 30 м.
Битрейт : 1694 Кбит/сек
Ширина : 704 пикселя
Высота : 384 пикселя
Соотношение сторон : 1,85:1
Частота кадров : 25,000 кадров/сек
Цветовое пространство : YUV
Субдискретизация насыщенности : 4:2:0
Битовая глубина : 8 бит
Тип развёртки : Прогрессивная
Метод сжатия : С потерями
Бит/(Пиксели*Кадры) : 0.251
Размер потока : 1,07 Гбайт (79%)
Библиотека кодирования : XviD 1.1.0 (UTC 2005-11-22)
Аудио
Идентификатор : 1
Формат : AC-3
Формат/Информация : Audio Coding 3
Расширение режима : CM (complete main)
Параметр Endianness формата : Big
Идентификатор кодека : 2000
Продолжительность : 1 ч. 30 м.
Вид битрейта : Постоянный
Битрейт : 448 Кбит/сек
Каналы : 2 канала
Расположение каналов : Front: L R
Частота : 48,0 КГц
Частота кадров : 31,250 кадров/сек (1536 spf)
Метод сжатия : С потерями
Размер потока : 290 Мбайт (21%)
Выравнивание : Разделение по промежуткам
Продолжительность промежутка : 40 мс. (1,00 видеокадр)
Время предзагрузки промежутка : 500 мс.

Скриншоты

[cybertorrent.ru].t108.torrent 
Торрент: Зарегистрирован [ 2018-02-15 13:57 ] · EA44B981E7BF98D2ACCB4DEFE03B1FC99F8A599C

Скачать .torrent

Скачать

14 KB

Статус: проверено
Скачан: 0 раз
Размер: 1,36 GB
Профиль [ЛС]
Показать сообщения:    

Текущее время: 28-Май 08:09

Часовой пояс: UTC ± 0



Вы не можете начинать темы
Вы не можете отвечать на сообщения
Вы не можете редактировать свои сообщения
Вы не можете удалять свои сообщения
Вы не можете голосовать в опросах
Вы не можете прикреплять файлы к сообщениям
Вы можете скачивать файлы