Статистика раздачи
Размер:  33,05 GB   |    Зарегистрирован:  6 дней   |    Скачан:  0 раз

Полного источника не было: Никогда

 
     
 
 

usta ®

Пол:
Не указан
Стаж:
9 месяцев 27 дней
Сообщений:
46

Учитель Ким, Доктор - Романтик / Nangmandakteo Kimsaboo / Romantic Doctor, Teacher Kim
Страна: Южная Корея
Год выпуска: 2016
Жанр: романтика, медицина, драма
Продолжительность: 21 эпизод по 60 минут
Режиссер: Ю Ин Сик
В ролях: Хан Сок Гю, Со Хён Джин, Ю Ён Сок, Им Вон Хи, Джин Гён, Ким Мин Джэ
Описание: Бу Ён Чжу когда-то был известным хирургом, его даже называли "Руки Господа". Но однажды он прост исчез, и никто не знал, куда. Сейчас Ён Чжу - просто учитель, который любит называть себя романтичным доктором.
Кан Дон Чжу стал врачом, чтобы победить кого-то. Юн Со Чжун - получить признание. Но после встречи с учителем Кимом они поняли, в чем на самом деле заключается профессия врача.
Неотключаемые субтитры: Без хардсаба
Русские субтитры: Нет
Оригинальная аудиодорожка: Нет
Качество видео: WEBRip
Автор рипа: Ao (Netflix)
Разрешение: 1080p
Формат: MKV
Видео: AVC (8bit), 1920x1080, 4420 kbps, 23,976 fps
Аудио RUS: AC3, 192 kbps, 48000 Hz, 2 ch - двухголосый закадровый (SOFTBOX)

Подробные технические данные

Видео
Идентификатор : 1
Формат : AVC
Формат/Информация : Advanced Video Codec
Профиль формата : Main@L4
Настройки формата : CABAC / 3 Ref Frames
Параметр CABAC формата : Да
Параметр RefFrames формата : 3 кадра
Идентификатор кодека : V_MPEG4/ISO/AVC
Продолжительность : 1 ч. 0 м.
Вид битрейта : Переменный
Битрейт : 4420 Кбит/сек
Максимальный битрейт : 6630 Кбит/сек
Ширина : 1920 пикселей
Высота : 1080 пикселей
Соотношение сторон : 16:9
Режим частоты кадров : Постоянный
Частота кадров : 23,976 (24000/1001) кадра/сек
Цветовое пространство : YUV
Субдискретизация насыщенности : 4:2:0
Битовая глубина : 8 бит
Тип развёртки : Прогрессивная
Бит/(Пиксели*Кадры) : 0.089
Размер потока : 1,86 Гбайт (96%)
Библиотека кодирования : x264 core 148 r2715 7e75228
Настройки программы : cabac=1 / ref=3 / deblock=1:0:0 / analyse=0x1:0x111 / me=umh / subme=10 / psy=1 / psy_rd=1.00:0.00 / mixed_ref=1 / me_range=24 / chroma_me=1 / trellis=2 / 8x8dct=0 / cqm=0 / deadzone=21,11 / fast_pskip=1 / chroma_qp_offset=-2 / threads=8 / lookahead_threads=1 / sliced_threads=0 / nr=0 / decimate=1 / interlaced=0 / bluray_compat=0 / stitchable=1 / constrained_intra=0 / bframes=2 / b_pyramid=0 / b_adapt=2 / b_bias=0 / direct=3 / weightb=1 / open_gop=0 / weightp=2 / keyint=48 / keyint_min=25 / scenecut=0 / intra_refresh=0 / rc_lookahead=48 / rc=2pass / mbtree=1 / bitrate=4420 / ratetol=1.0 / qcomp=0.50 / qpmin=6 / qpmax=51 / qpstep=4 / cplxblur=20.0 / qblur=0.5 / vbv_maxrate=6630 / vbv_bufsize=8840 / nal_hrd=vbr / filler=0 / ip_ratio=1.40 / aq=1:1.00
Default : Да
Forced : Нет
Аудио
Идентификатор : 2
Формат : AC-3
Формат/Информация : Audio Coding 3
Идентификатор кодека : A_AC3
Продолжительность : 1 ч. 0 м.
Вид битрейта : Постоянный
Битрейт : 192 Кбит/сек
Каналы : 2 канала
Расположение каналов : Front: L R
Частота : 48,0 КГц
Частота кадров : 31,250 кадров/сек (1536 SPF)
Битовая глубина : 16 бит
Метод сжатия : С потерями
Размер потока : 82,9 Мбайт (4%)
ServiceKind/String : Complete Main
Default : Да
Forced : Нет

Реклама

Отсутствует какая-либо реклама, нет логотипа канала и сериала в углах кадра, отсутствуют всплывающие рекламы корейских выборов, витаминов, косметики, машин и прочего. Абсолютно чистый видеоряд.
Похоже когда корейцы продавали права на сериал не получилось договориться с правообладателями песен, в итоге серий 5 пришлось перетаймливать.

Скриншоты

[cybertorrent.ru].t10808.torrent 
Торрент: Зарегистрирован [ 2020-01-13 20:47 ] · 4F89A6DC3D87133CF2931502B1C7C44D62455C95

Скачать .torrent

Скачать

85 KB

Статус: проверено
Скачан: 0 раз
Размер: 33,05 GB
terms.php
Профиль [ЛС]
Показать сообщения:    

Текущее время: 20-Янв 14:18

Часовой пояс: UTC ± 0



Вы не можете начинать темы
Вы не можете отвечать на сообщения
Вы не можете редактировать свои сообщения
Вы не можете удалять свои сообщения
Вы не можете голосовать в опросах
Вы не можете прикреплять файлы к сообщениям
Вы можете скачивать файлы