Статистика раздачи
Размер:  1,41 GB   |    Зарегистрирован:  5 месяцев 29 дней   |    Скачан:  0 раз
DL-List: Нет

Полного источника не было: Никогда

 
     
 
 

Евгений ®

Пол:
Не указан
Стаж:
11 месяцев
Сообщений:
156

Коммандо / Commando / Режиссёрская версия / Director's cut
Страна: США
Жанр: боевик
Год выпуска: 1985
Продолжительность: 01:31:49
Перевод: Профессиональный (двухголосый закадровый) REN-TV
Субтитры: нет
Оригинальная аудиодорожка: английский
Режиссер: Марк Л. Лестер / Mark L. Lester
В ролях: Арнольд Шварценеггер, Алисса Милано, Рэй Доун Чонг, Дэн Хедайя, Вернон Уэллс, Джеймс Олсон, Дэвид Келли, Билл Дьюк
Описание: Полковник в отставке Джон Матрикс — бывший командир спецотряда, участвовавшего в секретных операциях на Ближнем Востоке, СССР и Центральной Америке. Находясь в отличной физической форме и владея знаниями, которые делают его супер-солдатом, Матрикс живет под другим именем в большом доме со своей дочерью вдали от города. Но спокойную жизнь нарушает его старый враг, похищая 11-ти летнюю дочь полковника. И вспыхнувший ненавистью Джон Матрикс безжалостно убивает всех, кто становится у него на пути к спасению любимой дочери…
Доп. информация:
Видеоряд из раздачи http://cybertorrent.net/viewtopic.php?t=5691969, за которую благодарим HRIME.
За предоставление записи фильма с телеканала "REN-TV" большое спасибо Raptorio Rio.
За синхронизацию звуковой дорожки огромная благодарность JUSTKANT.
Данный перевод на трекере впервые!
Роли озвучивали: Владимир Герасимов и Ольга Зубкова.
В звуковой дорожке в расширенных сценах есть 2 небольшие вставки двухголосого перевода П. Гланца и И. Королёвой.
Сэмпл: https://www.sendspace.com/file/hpo0yl
Качество видео: BDRip
Формат видео: AVI
Видео: 704x384, 23.976 fps, MPEG-4 Visual, 1807 Kbps, XviD 67
Аудио 1: 48 KHz, AC3, 2 ch, 192 Kbps - DVO (REN-TV)
Аудио 2: 48 KHz, AC3, 2 ch, 192 Kbps - Original Eng

MediaInfo

General
Complete name : C:\Users\Сергей\Downloads\Коммандо (REN-TV + Eng).avi
Format : AVI
Format/Info : Audio Video Interleave
File size : 1.41 GiB
Duration : 1h 31mn
Overall bit rate : 2 205 Kbps
Movie name : Commando /1985/ Mark L. Lester
Director : HRIME
Writing application : VirtualDubMod 1.5.10.2 (build 2540/release)
Writing library : VirtualDubMod build 2540/release
Original source form/Name : Movie
Copyright : HQ-ViDEO
Comment : 09.02.2019
Video
ID : 0
Format : MPEG-4 Visual
Format profile : Advanced Simple@L5
Format settings, BVOP : 1
Format settings, QPel : No
Format settings, GMC : No warppoints
Format settings, Matrix : Custom
Codec ID : XVID
Codec ID/Hint : XviD
Duration : 1h 31mn
Bit rate : 1 807 Kbps
Width : 704 pixels
Height : 384 pixels
Display aspect ratio : 1.85:1
Frame rate : 23.976 fps
Color space : YUV
Chroma subsampling : 4:2:0
Bit depth : 8 bits
Scan type : Progressive
Compression mode : Lossy
Bits/(Pixel*Frame) : 0.279
Stream size : 1.16 GiB (82%)
Writing library : XviD 67
Audio #1
ID : 1
Format : AC-3
Format/Info : Audio Coding 3
Mode extension : CM (complete main)
Format settings, Endianness : Big
Codec ID : 2000
Duration : 1h 31mn
Bit rate mode : Constant
Bit rate : 192 Kbps
Channel(s) : 2 channels
Channel positions : Front: L R
Sampling rate : 48.0 KHz
Bit depth : 16 bits
Compression mode : Lossy
Stream size : 126 MiB (9%)
Alignment : Split accross interleaves
Interleave, duration : 42 ms (1.00 video frame)
Interleave, preload duration : 500 ms
Audio #2
ID : 2
Format : AC-3
Format/Info : Audio Coding 3
Mode extension : CM (complete main)
Format settings, Endianness : Big
Codec ID : 2000
Duration : 1h 31mn
Bit rate mode : Constant
Bit rate : 192 Kbps
Channel(s) : 2 channels
Channel positions : Front: L R
Sampling rate : 48.0 KHz
Bit depth : 16 bits
Compression mode : Lossy
Stream size : 126 MiB (9%)
Alignment : Split accross interleaves
Interleave, duration : 42 ms (1.00 video frame)
Interleave, preload duration : 500 ms

Скриншоты

[cybertorrent.ru].t10814.torrent 
Торрент: Зарегистрирован [ 2020-01-13 20:47 ] · 2F4FD4AE04959DA2D7389E7A6521382E028E9A4A

Скачать .torrent

Скачать

15 KB

Статус: проверено
Скачан: 0 раз
Размер: 1,41 GB  ·  Тип торрента
terms.php
Профиль [ЛС]
Показать сообщения:    

Текущее время: 12-Июл 11:52

Часовой пояс: UTC ± 0



Вы не можете начинать темы
Вы не можете отвечать на сообщения
Вы не можете редактировать свои сообщения
Вы не можете удалять свои сообщения
Вы не можете голосовать в опросах
Вы не можете прикреплять файлы к сообщениям
Вы можете скачивать файлы