Статистика раздачи
Размер:  1,08 GB   |    Зарегистрирован:  1 месяц 5 дней   |    Скачан:  0 раз

Полного источника не было: Никогда

 
     
 
 

usta ®

Пол:
Не указан
Стаж:
11 месяцев 1 день
Сообщений:
51

Волшебный халат / Sehirli xalat
Жанр: Детский, сказка
Страна: СССР
Студия: Азербайджанфильм
Год выпуска: 1964
Продолжительность: 01:15:43
Перевод: Профессиональный (дублированный) – киностудия им. М.Горького
Субтитры: русские (форсированные – только на титры)
Субтитры: русские полные (sasha20072007)
Оригинальная аудиодорожка: азербайджанский
Аудиодорожка: немецкий дубляж
Режиссёр: Али Саттар (Али-Сэттар) Атакишиев
В ролях:
Азер Курбанов … Рашид Мирзоев - дублирует Миша Кисляров
Солмаз Хатамова … Зарифа - дублирует Ляля Громова
Коля Логинов … Петя - дублирует Женя Апенков
Юсиф Шейхов … Эльдар - дублирует Мария Виноградова
Алиага Агаев … Хан - дублирует Евгений Весник
Анатолий Фалькович … Ио-Кио - дублирует Артём Карапетян
Мовсун Санани … Мехсун Агаев - дублирует Евгений Весник
Ага Гусейн Джавадов … главный визирь - дублирует Георгий Милляр
Исмаил Османлы … Векил, судья - дублирует Михаил Глузский
Гусейнага Садыхов … Визирь - дублирует Константин Тыртов
Мамед Садыков … звездочет - дублирует Анатолий Кубацкий
Афрасияб Мамедов … Сердар, военачальник - дублирует Яков Беленький
Алекпер Гусейн-заде … старик - дублирует Владимир Балашов
Талят Рахманов … милиционер - дублирует Михаил Глузский
Лютфи Мамедбеков … учитель "в будущем" - дублирует Валерий Прохоров
Али Халилов … купец
Описание: На праздник к азербайджанским пионерам приезжает известный фокусник Ио-Кио, который дарит ребятам «волшебный» халат. Надев этот халат можно перенестись и в прошлое и в будущее. О том, какие невероятные приключения происходят со школьнкиами Рашидом и Зарифой, когда они надевали «волшебный» халат, и рассказывает этот фильм.
Замечательный фильм, хоть и наивный.
Последний раз в дубляже по ТВ показывали в советские времена на 1 мая.
Дополнительная информация:
Релиз:
Автор рипа: pmv
Большое спасибо за:
- аудиодорожку с советским дубляжом – mukuk2005 aka Старьёвщик
- русские субтитры - fedor7, sasha20072007
- немецкий DVD5 DEFA - ICESTORM (http://cybertorrent.ru/viewtopic.php?t=3913071) - dvdbox
- синхронизацию дорожки - pmv
* Фильм дублирован на киностудии им. М.Горького в 1965 году.
Режиссёр дубляжа: Г.Шепотинник
Звукооператор: Н.Кратенкова
Роли дублировали: Миша Кисляров, Ляля Громова, Женя Апенков, Мария Виноградова, Евгений Весник, Артем Карапетян, Георгий Милляр, Валерий Прохоров, Константин Тыртов, Анатолий Кубацкий, Яков Беленький, Владимир Балашов, Михаил Глузский, В.Рубинковский, С.Павлихин, С.Мешков, О.Малышева, Е.Лучина
.

Немного о фильме

Главный герой, Рашид, попадает в прошлое – к шаху, и со стойкостью, достойной Ули Громовой, выдерживает угрозы кинуть его тиграм. Но темный шах пугается его современных знаний, и он делается джинном! По имени джинн Пионер. Рашидик прихватывает шаха к своим, и тут начинается черед шаха бегать… Когда все кодло на него виснет, я где-то даже позавидовал ему… но темный шах убегает. Со сноровкой бывалого маньяка он похищает светловолосого мальчика (Коля Логинов), затыкает ему рот, связывает и утаскивает с собой! А сам пытается взорвать Дворец Пионеров. И опять он хватает Рашидика, и опять мальчик кувыркается в воздухе…
Особо стоит отметить «будущее». Шах сидит в стеклянной призме, предвосхитив Высоцкого на 5 лет. Чудесная кинокамера – тут же цветной фильм показывает! И то, что мы сейчас бы назвали планшетом – книжку раскрыли, и стали появляться страницы с текстом! И неважно, что кинокамера чрезвычайно похожа на тогдашние модели с турелью…
Потом его везут на Луну, и опять Рашидик кувыркается – но уже в невесомости… см. один из скринов, очень красиво.
Самое для меня смешное - что будущие дети одеты в глухие комбинезоны, о шортах и помину нет… Пророки! Эх, не фильм, а ностальгия…
В заключение оказывается, что все это были номера иллюзиониста и артистов – и джигитовка, и сенсорный планшет, и невесомость…
(с раздачи dvdbox)
.
IMDb = 7,1/10 (147) - https://www.imdb.com/title/tt2081359/
Кинопоиск = 7.415 (103) - https://www.kinopoisk.ru/film/440009/
ВНИМАНИЕ!!! РИП ФОРМАТА mkv (кодек H.264) ВОСПРОИЗВОДИТСЯ НЕ НА ВСЕХ БЫТОВЫХ ВИДЕОПЛЕЕРАХ!!!
ПРОСЬБА к СКАЧАВШИМ. НЕ УХОДИТЕ С РАЗДАЧИ, ПОМОГИТЕ ДРУГИМ СКАЧАТЬ!!!
Качество видео: DVDRip-AVC
Формат видео: MKV
Видео: AVC (H264), 702x568 (4:3), 25 fps, 1600 kbps, 0.161 bit/pixel
Аудио #1: AC3, 48 kHz, stereo (2 ch), 192 kbps – советский дубляж
Аудио #2: AC3, 48 kHz, mono, 128 kbps – оригинальный азербайджанский
Аудио #3: AC3, 48 kHz, mono, 128 kbps – немецкий дубляж

MediaInfo

General
Unique ID : 320807614982084892769258186072035288208 (0xF1594C98E7ACD70C4C7A29F12281E490)
Complete name : D:\torrents\Волшебный халат (1964, rus_dub+aze+ger_dub+rus_sub).mkv
Format : Matroska
Format version : Version 4 / Version 2
File size : 1.08 GiB
Duration : 1 h 15 min
Overall bit rate : 2 049 kb/s
Encoded date : UTC 2020-01-19 02:38:48
Writing application : mkvmerge v42.0.0 ('Overtime') 64-bit
Writing library : libebml v1.3.10 + libmatroska v1.5.2
Video
ID : 1
Format : AVC
Format/Info : Advanced Video Codec
Format profile : High@L4.1
Format settings, CABAC : Yes
Format settings, RefFrames : 8 frames
Codec ID : V_MPEG4/ISO/AVC
Duration : 1 h 15 min
Bit rate : 1 600 kb/s
Width : 702 pixels
Height : 568 pixels
Display aspect ratio : 4:3
Frame rate mode : Constant
Frame rate : 25.000 FPS
Color space : YUV
Chroma subsampling : 4:2:0
Bit depth : 8 bits
Scan type : Progressive
Bits/(Pixel*Frame) : 0.161
Stream size : 867 MiB (78%)
Writing library : x264 core 157 r2958 57baac4
Encoding settings : cabac=1 / ref=8 / deblock=1:0:0 / analyse=0x3:0x133 / me=umh / subme=9 / psy=1 / psy_rd=1.00:0.00 / mixed_ref=1 / me_range=24 / chroma_me=1 / trellis=2 / 8x8dct=1 / cqm=0 / deadzone=21,11 / fast_pskip=1 / chroma_qp_offset=-2 / threads=18 / lookahead_threads=3 / sliced_threads=0 / nr=0 / decimate=1 / interlaced=0 / bluray_compat=0 / constrained_intra=0 / bframes=7 / b_pyramid=2 / b_adapt=2 / b_bias=0 / direct=3 / weightb=1 / open_gop=0 / weightp=2 / keyint=250 / keyint_min=25 / scenecut=40 / intra_refresh=0 / rc_lookahead=60 / rc=2pass / mbtree=1 / bitrate=1600 / ratetol=1.0 / qcomp=0.60 / qpmin=0 / qpmax=69 / qpstep=4 / cplxblur=20.0 / qblur=0.5 / ip_ratio=1.40 / aq=1:1.00
Default : Yes
Forced : No
Audio #1
ID : 2
Format : AC-3
Format/Info : Audio Coding 3
Format settings, Endianness : Big
Codec ID : A_AC3
Duration : 1 h 15 min
Bit rate mode : Constant
Bit rate : 192 kb/s
Channel(s) : 2 channels
Channel positions : Front: L R
Sampling rate : 48.0 kHz
Frame rate : 31.250 FPS (1536 SPF)
Bit depth : 16 bits
Compression mode : Lossy
Stream size : 103 MiB (9%)
Language : Russian
Service kind : Complete Main
Default : Yes
Forced : No
Audio #2
ID : 3
Format : AC-3
Format/Info : Audio Coding 3
Format settings, Endianness : Big
Codec ID : A_AC3
Duration : 1 h 15 min
Bit rate mode : Constant
Bit rate : 128 kb/s
Channel(s) : 1 channel
Channel positions : Front: C
Sampling rate : 48.0 kHz
Frame rate : 31.250 FPS (1536 SPF)
Bit depth : 16 bits
Compression mode : Lossy
Stream size : 69.3 MiB (6%)
Language : Azerbaijani
Service kind : Complete Main
Default : No
Forced : No
Audio #3
ID : 4
Format : AC-3
Format/Info : Audio Coding 3
Format settings, Endianness : Big
Codec ID : A_AC3
Duration : 1 h 15 min
Bit rate mode : Constant
Bit rate : 128 kb/s
Channel(s) : 1 channel
Channel positions : Front: C
Sampling rate : 48.0 kHz
Frame rate : 31.250 FPS (1536 SPF)
Bit depth : 16 bits
Compression mode : Lossy
Stream size : 69.3 MiB (6%)
Language : German
Service kind : Complete Main
Default : No
Forced : No
Text #1
ID : 5
Format : UTF-8
Codec ID : S_TEXT/UTF8
Codec ID/Info : UTF-8 Plain Text
Duration : 1 h 15 min
Bit rate : 1 b/s
Count of elements : 11
Stream size : 618 Bytes (0%)
Language : Russian
Default : Yes
Forced : No
Text #2
ID : 6
Format : UTF-8
Codec ID : S_TEXT/UTF8
Codec ID/Info : UTF-8 Plain Text
Duration : 1 h 15 min
Bit rate : 105 b/s
Count of elements : 829
Stream size : 58.1 KiB (0%)
Language : Russian
Default : No
Forced : No

Скриншот c названием фильма

МОИ РАЗДАЧИ НА РУТРЕКЕРЕ: http://cybertorrent.ru/tracker.php?rid=27390064
[cybertorrent.ru].t10998.torrent 
Торрент: Зарегистрирован [ 2020-01-19 16:47 ] · E1E1EBB5289D9E138602FA0B008A07E181BE80E0

Скачать .torrent

Скачать

11 KB

Статус: проверено
Скачан: 0 раз
Размер: 1,08 GB
terms.php
Профиль [ЛС]
Показать сообщения:    

Текущее время: 24-Фев 23:30

Часовой пояс: UTC ± 0



Вы не можете начинать темы
Вы не можете отвечать на сообщения
Вы не можете редактировать свои сообщения
Вы не можете удалять свои сообщения
Вы не можете голосовать в опросах
Вы не можете прикреплять файлы к сообщениям
Вы можете скачивать файлы