Статистика раздачи
Размер:  267 MB   |    Зарегистрирован:  3 месяца 11 дней   |    Скачан:  0 раз

Полного источника не было: Никогда

 
   
 
 

lopster ®

Пол:
Не указан
Стаж:
3 месяца 11 дней
Сообщений:
612

9 часов без сна
Жанр: мелодрама, короткометражный
Год выпуска: 2008
Продолжительность: 00:22:51
Режиссёр: Настя Пальчикова
В ролях: Катя Костеневская, Антон Бебин, и др.
Описание: Они живут в современном мире и боятся быть одинокими. Они быстро знакомятся и много говорят. Они случайно сталкиваются в круговороте большого города. Хватит ли им девяти часов, чтобы узнать друг друга по-настоящему и сказать о главном?
Сэмпл: http://sendfile.su/1385156
Качество видео: DVDRip
Формат видео: AVI
Видео: 704x320 (2.20:1), 25 fps, DivX Codec 6.8.5/6.9.1 ~1498 kbps avg, 0.27 bit/pixel
Аудио: 48 kHz, MPEG Layer 3, 2 ch, ~128.00 kbps avg

AviInfo

File: 9.chasov.bez.sna.2008.avi
Title: 9 hours without Sleep
Author: Nastja Palchikova
Genre: Drama
Category: Movie
Comment: DVDRip by gera
FileSize: 266.50 Mb ( 279 445 504 bytes )
Play length: 00:22:51.000 (34275 frames)
Subtitles: Not Present
Video: 704x320 (2.20:1), 25 fps, DivX Codec 6.8.5/6.9.1 ~1498 kbps avg, 0.27 bit/pixel
Audio: 48 kHz, MPEG Layer 3, 2 ch, ~128.00 kbps avg

MediaInfo

Общее
Полное имя : D:\9.chasov.bez.sna.2008.avi
Формат : AVI
Формат/Информация : Audio Video Interleave
Размер файла : 267 Мбайт
Продолжительность : 22 м.
Общий поток : 1631 Кбит/сек
Название фильма : 9 hours without Sleep
Режиссёр : Nastja Palchikova
Жанр : Drama
Программа кодирования : VirtualDubMod 1.5.10.2 (build 2540/release)
Формат оригинала/Имя : Movie
Примечание : DVDRip by gera
Видео
Идентификатор : 0
Формат : MPEG-4 Visual
Параметр BVOP формата : Нет
Параметр QPel формата : Нет
Параметр GMC формата : Без точки перехода
Параметр матрицы формата : Default (MPEG)
Идентификатор кодека : DX50
Идентификатор кодека/Подсказка : DivX 5
Продолжительность : 22 м.
Битрейт : 1497 Кбит/сек
Ширина : 704 пикселя
Высота : 320 пикселей
Соотношение сторон : 2,2:1
Частота кадров : 25,000 кадров/сек
Цветовое пространство : YUV
Субдискретизация насыщенности : 4:2:0
Битовая глубина : 8 бит
Тип развёртки : Прогрессивная
Метод сжатия : С потерями
Бит/(Пиксели*Кадры) : 0.266
Размер потока : 245 Мбайт (92%)
Библиотека кодирования : DivX 6.8.5 (UTC 2009-08-20)
Аудио
Идентификатор : 1
Формат : MPEG Audio
Версия формата : Version 1
Профиль формата : Layer 3
Режим : Joint stereo
Идентификатор кодека : 55
Идентификатор кодека/Подсказка : MP3
Продолжительность : 22 м.
Вид битрейта : Постоянный
Битрейт : 128 Кбит/сек
Каналы : 2 канала
Частота : 48,0 КГц
Метод сжатия : С потерями
Размер потока : 20,9 Мбайт (8%)
Выравнивание : Соединение по промежуткам
Продолжительность промежутка : 1000 мс. (25,00 видеокадров)
Время предзагрузки промежутка : 1008 мс.

Скриншот c названием фильма

Скриншоты

В рамках ликвидации приватных раздач, торрент-файл перезагружен 05-Июн-17 02:04.

http://cybertorrent.ru/viewtopic.php?t=5403618-Оформление отредактировано, для приведения в соответствие с действующими правилами раздела "Наше кино" - http://cybertorrent.ru/viewtopic.php?t=2593632 .-Содержимое не менялось. Просьба к ранее скачавшим, скачать новый торрент-файл и присоединиться к раздаче - http://cybertorrent.ru/viewtopic.php?t=3473252 .
[cybertorrent.ru].t111.torrent 
Торрент: Зарегистрирован [ 2018-02-15 13:57 ] · C6A33D407978BCFD89889F15F7747A16211ABB8C

Скачать .torrent

Скачать

11 KB

Статус: проверено
Скачан: 0 раз
Размер: 267 MB
Профиль [ЛС]
Показать сообщения:    

Текущее время: 27-Май 01:41

Часовой пояс: UTC ± 0



Вы не можете начинать темы
Вы не можете отвечать на сообщения
Вы не можете редактировать свои сообщения
Вы не можете удалять свои сообщения
Вы не можете голосовать в опросах
Вы не можете прикреплять файлы к сообщениям
Вы можете скачивать файлы