BitTorrent клиенты



Раскаленная печь (Восставшие из пепла) / Furnace (Уильям Батлер) [2006, США, ужасы, SATRip]

Ответить на тему
 
Автор Сообщение

Angel ®

Пол: Не указан

Стаж: 1 год

Сообщений: 1346

Создавать темы 05-Фев-2018 18:12

[Цитировать]

Раскаленная печь (Восставшие из пепла) / Furnace
Год выпуска: 2006
Страна: США
Жанр: ужасы
Продолжительность: 01:17:55
Перевод: Профессиональный (многоголосый, закадровый)
Режиссер: Уильям Батлер
В ролях: Майкл Паре, Джа Рул, Дженни МакШейн, Дэнни Трехо
Описание: 1956 год. Страшный пожар уничтожает южное крыло тюрьмы. В огне гибнет дочь начальника тюрьмы. Вслед за ее смертью следует череда загадочных самоубийств тюремной охраны... Спустя 50 лет детектив Майкл Тернер расследует самоубийства людей, побывавших в южном крыле тюрьмы уже в наши дни. Что стоит за этими смертями? Майкл еще не знает, что его ждет, какой ужас ему предстоит пережить...
После закачки прошу оставаться на раздаче!
Качество: SATRip
Формат: AVI
Видео кодек: DivX
Аудио кодек: MP3
Видео: DivX 5 704x528 25.00fps 1810Kbps
Аудио: MPEG Audio 48000Hz stereo 192Kbps

MediaInfo

General
Complete name : H:\torrent\perezaliv\Raskalennaj_pech_[torrents.ru].avi
Format : AVI
Format/Info : Audio Video Interleave
File size : 1.09 GiB
Duration : 1 h 17 min
Overall bit rate : 2 009 kb/s
Writing application : VirtualDubMod 1.5.4.1 (build 2178/release)
Writing library : VirtualDubMod build 2178/release
Video
ID : 0
Format : MPEG-4 Visual
Format settings : BVOP1
Format settings, BVOP : 1
Format settings, QPel : No
Format settings, GMC : No warppoints
Format settings, Matrix : Default (H.263)
Muxing mode : Packed bitstream
Codec ID : DX50
Codec ID/Hint : DivX 5
Duration : 1 h 17 min
Bit rate : 1 810 kb/s
Nominal bit rate : 7 800 kb/s
Width : 704 pixels
Height : 528 pixels
Display aspect ratio : 4:3
Frame rate : 25.000 FPS
Color space : YUV
Chroma subsampling : 4:2:0
Bit depth : 8 bits
Scan type : Progressive
Compression mode : Lossy
Bits/(Pixel*Frame) : 0.195
Stream size : 1 009 MiB (90%)
Writing library : DivX 6.8.0 (UTC 2007-12-04)
Audio
ID : 1
Format : MPEG Audio
Format version : Version 1
Format profile : Layer 2
Codec ID : 50
Duration : 1 h 17 min
Bit rate mode : Constant
Bit rate : 192 kb/s
Channel(s) : 2 channels
Sampling rate : 48.0 kHz
Compression mode : Lossy
Stream size : 107 MiB (10%)
Alignment : Aligned on interleaves
Interleave, duration : 80 ms (2.00 video frames)
Interleave, preload duration : 504 ms

Скриншоты

[Профиль] [ЛС]
Показать сообщения:    
Ответить на тему

Текущее время: 19-Фев 23:38

Часовой пояс: UTC + 3



Вы не можете начинать темы
Вы не можете отвечать на сообщения
Вы не можете редактировать свои сообщения
Вы не можете удалять свои сообщения
Вы не можете голосовать в опросах
Вы не можете прикреплять файлы к сообщениям
Вы можете скачивать файлы