Статистика раздачи
Нет
 
     
 
 

noelia ®

Пол:
Не указан
Стаж:
1 год 2 месяца
Сообщений:
65

Таинственный монах / альтернативный вариант
Жанр: героико-приключенческий
Год выпуска: 1968
Продолжительность: 01:17:27
Режиссёр: Аркадий Кольцатый
В ролях: Владимир Дружников, Валентин Зубков, Александр Белявский, Константин Сорокин, Евгений Жариков, Татьяна Конюхова, Станислав Чекан, Александр Лебедев, Кирилл Столяров, Анатолий Голик
Описание: Украина, 1920 год. Деникинская армия разбита, Врангель бежит в Крым, а в известном Матренином монастыре скрываются остатки белогвардейцев. Под видом поручика Стронского в монастырь проникает опытный чекист Воронцов. Ему удается выяснить планы врага и вовремя предотвратить новый мятеж.
Доп. информация: Альтернатива моей прежней раздаче. Телесин с ещё одной фильмокопии, которую мне удалось раздобыть. Эта копия намного целее предыдущей, но тоже не лишена недостатков - кинопленка очень пересохшая, из-за этого изображение в кадре подёргивается. Попытки стабилизировать изображение в видеоредакторах удовлетворительного результата не принесли, поэтому выкладываю без изменений, "как есть".
Сэмпл: https://yadi.sk/i/5UkwExRnA8xz_Q
Качество видео: TeleCine
Формат видео: AVI
Видео: XviD MPEG-4, 672x464 (1.45:1), 25 fps, ~2383 kbps avg, 0.30 bit/pixel
Аудио: русский, MPEG Layer 3, 48 kHz, ~128.00 kbps avg, 2 ch

MediaInfo

Полное имя : Tainstvennyj_monah.avi
Формат : AVI
Формат/Информация : Audio Video Interleave
Размер файла : 1,36 Гбайт
Продолжительность : 1 ч. 17 м.
Общий поток : 2522 Кбит/сек
Программа кодирования : VirtualDubMod 1.5.10.2 (build 2540/release)
Библиотека кодирования : VirtualDubMod build 2540/release
Видео
Идентификатор : 0
Формат : MPEG-4 Visual
Профиль формата : Advanced Simple@L5
Параметр BVOP формата : 2
Параметр QPel формата : Нет
Параметр GMC формата : Без точки перехода
Параметр матрицы формата : Default (H.263)
Режим смешивания : Сжатый битовый поток
Идентификатор кодека : XVID
Идентификатор кодека/Подсказка : XviD
Продолжительность : 1 ч. 17 м.
Битрейт : 2384 Кбит/сек
Ширина : 672 пикселя
Высота : 464 пикселя
Соотношение сторон : 1,448
Частота кадров : 25,000 кадров/сек
Цветовое пространство : YUV
Субдискретизация насыщенности : 4:2:0
Битовая глубина : 8 бит
Тип развёртки : Прогрессивная
Метод сжатия : С потерями
Бит/(Пиксели*Кадры) : 0.306
Размер потока : 1,29 Гбайт (95%)
Библиотека кодирования : XviD 1.2.1 (UTC 2008-12-04)
Аудио
Идентификатор : 1
Формат : MPEG Audio
Версия формата : Version 1
Профиль формата : Layer 3
Режим : Joint stereo
Идентификатор кодека : 55
Идентификатор кодека/Подсказка : MP3
Продолжительность : 1 ч. 17 м.
Вид битрейта : Постоянный
Битрейт : 128 Кбит/сек
Каналы : 2 канала
Частота : 48,0 КГц
Метод сжатия : С потерями
Размер потока : 70,9 Мбайт (5%)
Выравнивание : Соединение по промежуткам
Продолжительность промежутка : 40 мс. (1,00 видеокадр)
Время предзагрузки промежутка : 504 мс.

Скриншот c названием фильма

Скриншоты

Профиль [ЛС]
Показать сообщения:    

Текущее время: 24-Сен 02:48

Часовой пояс: UTC ± 0



Вы не можете начинать темы
Вы не можете отвечать на сообщения
Вы не можете редактировать свои сообщения
Вы не можете удалять свои сообщения
Вы не можете голосовать в опросах
Вы не можете прикреплять файлы к сообщениям
Вы не можете скачивать файлы