Статистика раздачи
Размер:  410 MB   |    Зарегистрирован:  3 месяца 11 дней   |    Скачан:  0 раз

Полного источника не было: Никогда

 
   
 
 

lopster ®

Пол:
Не указан
Стаж:
3 месяца 11 дней
Сообщений:
612

Сын
Год выпуска: 2004
Жанр: драма
Продолжительность: 00:30:17.000 (45425 frames)
Режиссёр: Александр Горновский
В ролях: Юрий Назаров, Ольга Остроумова
Описание:
По мотивам произведений Андрея Платонова.
Пожилая супружеская пара живёт рядом с железнодорожной станцией. Муж работает мастером, следит за состоянием локомотивов. Он — профессионал в своём деле. Несмотря на всеобщую разруху, в доме царит достаток и уважение друг к другу. Ах, если бы их сын сейчас был с ними...
[box=#000000,#FFFFFF]КиноПоиск[/box][box=#000000,#FFFFFF]IMDb[/box]
Награды:
Фильм «Сын» удостоен призом Национальной Академии киноискусств России и медалью «За точное проникновение в прозу А. Платонова».
Качество: DVDRip
Формат: AVI
Видео кодек: DivX
Аудио кодек: AC3
Видео: 704x320 (2.20:1), 25 fps, DivX Codec 6.8.5 ~1500 kbps avg, 0.27 bit/pixel
Аудио: 48 kHz, AC3 Dolby Digital, 3/2 (L,C,R,l,r) + LFE ch, ~384.00 kbps avg
Рип с этого DVD

MediaInfo

Общее
Полное имя : Syn.2004.avi
Формат : AVI
Формат/Информация : Audio Video Interleave
Размер файла : 410 Мбайт
Продолжительность : 30 м.
Общий поток : 1891 Кбит/сек
Название фильма : Syn
Режиссёр : Aleksandr Gornovskij
Жанр : Drama
Программа кодирования : VirtualDubMod 1.5.10.2 (build 2540/release)
Формат оригинала/Имя : Movie
Примечание : DVDRip by gera
Видео
Идентификатор : 0
Формат : MPEG-4 Visual
Параметр BVOP формата : Нет
Параметр QPel формата : Нет
Параметр GMC формата : Без точки перехода
Параметр матрицы формата : Default (MPEG)
Идентификатор кодека : DX50
Идентификатор кодека/Подсказка : DivX 5
Продолжительность : 30 м.
Битрейт : 1500 Кбит/сек
Ширина : 704 пикселя
Высота : 320 пикселей
Соотношение сторон : 2,2:1
Частота кадров : 25,000 кадров/сек
Цветовое пространство : YUV
Субдискретизация насыщенности : 4:2:0
Битовая глубина : 8 бит
Тип развёртки : Прогрессивная
Метод сжатия : С потерями
Бит/(Пиксели*Кадры) : 0.266
Размер потока : 325 Мбайт (79%)
Библиотека кодирования : DivX 6.8.5 (UTC 2009-08-20)
Аудио
Идентификатор : 1
Формат : AC-3
Формат/Информация : Audio Coding 3
Расширение режима : CM (complete main)
Параметр Endianness формата : Big
Идентификатор кодека : 2000
Продолжительность : 30 м.
Вид битрейта : Постоянный
Битрейт : 384 Кбит/сек
Каналы : 6 каналов
Расположение каналов : Front: L C R, Side: L R, LFE
Частота : 48,0 КГц
Битовая глубина : 16 бит
Метод сжатия : С потерями
Размер потока : 83,1 Мбайт (20%)
Выравнивание : Разделение по промежуткам
Продолжительность промежутка : 64 мс. (1,60 видеокадра)
Время предзагрузки промежутка : 64 мс.

скриншоты

Внимание! Торрент-файл перезалит 10.07.2017 без изменения содержимого раздачи в связи с просьбой администрации снять флаг "Приватная раздача". Скачавшим ранее просьба перекачать торрент-файл, перехешировать содержимое и присоединиться к раздаче.
[cybertorrent.ru].t112.torrent 
Торрент: Зарегистрирован [ 2018-02-15 13:57 ] · 0E510CA5140A5D36983388DB12E3C51125D049A6

Скачать .torrent

Скачать

17 KB

Статус: проверено
Скачан: 0 раз
Размер: 410 MB
Профиль [ЛС]
Показать сообщения:    

Текущее время: 27-Май 01:40

Часовой пояс: UTC ± 0



Вы не можете начинать темы
Вы не можете отвечать на сообщения
Вы не можете редактировать свои сообщения
Вы не можете удалять свои сообщения
Вы не можете голосовать в опросах
Вы не можете прикреплять файлы к сообщениям
Вы можете скачивать файлы